×

¿Problemas para descargar con Mozilla, EDGE? Deshabilita la opción "Abrir vinculos en una pestaña nueva" tal como lo muestra ésta imagen.

60 segundos (2000) HD 1080p Latino – CMHDD

410 vistas

Información de 60 segundos (2000) HD 1080p Latino – CMHDD

Datos de la película

  • Calidad: 1080p
  • Audio: Español Latino AC3 5.1 BLURAY - Ingles AC3 5.1 BLURAY
  • Subtitulos: Español Latino SRT
  • Resolución: 1920x816p
  • Formato: MKV
  • Codec: H.264
  • Encoder: Dracarys
  • Mediainfo: Clic para Mostrar Datos Ver
  • Format                      : Matroska
    Format version              : Version 4
    File size                   : 3.76 GiB
    Duration                    : 1 h 57 min
    Overall bit rate            : 4 563 kb/s
    Movie name                  : 60 segundos (2000) HD 1080p Latino - CMHDD
    Encoded date                : UTC 2020-05-26 22:15:02
    Writing application         : mkvmerge v46.0.0 ('No Deeper Escape') 64-bit
    Writing library             : libebml v1.3.10 + libmatroska v1.5.2

    Video
    ID                          : 1
    Format                      : AVC
    Format/Info                 : Advanced Video Codec
    Format profile              : High@L4.1
    Format settings             : CABAC / 5 Ref Frames
    Format settings, CABAC      : Yes
    Format settings, Reference  : 5 frames
    Codec ID                    : V_MPEG4/ISO/AVC
    Duration                    : 1 h 57 min
    Bit rate                    : 3 500 kb/s
    Width                       : 1 920 pixels
    Height                      : 816 pixels
    Display aspect ratio        : 2.35:1
    Frame rate mode             : Constant
    Frame rate                  : 23.976 (24000/1001) FPS
    Color space                 : YUV
    Chroma subsampling          : 4:2:0
    Bit depth                   : 8 bits
    Scan type                   : Progressive
    Bits/(Pixel*Frame)          : 0.093
    Stream size                 : 2.86 GiB (76%)
    Writing library             : x264 core 157 r2935 545de2f
    Encoding settings           : cabac=1 / ref=5 / deblock=1:0:0 / analyse=0x3:0x113 / me=hex / subme=8 / psy=1 / psy_rd=1.00:0.00 / mixed_ref=1 / me_range=16 / chroma_me=1 / trellis=2 / 8x8dct=1 / cqm=0 / deadzone=21,11 / fast_pskip=1 / chroma_qp_offset=-2 / threads=24 / lookahead_threads=4 / sliced_threads=0 / nr=0 / decimate=1 / interlaced=0 / bluray_compat=0 / constrained_intra=0 / bframes=3 / b_pyramid=2 / b_adapt=1 / b_bias=0 / direct=3 / weightb=1 / open_gop=0 / weightp=2 / keyint=240 / keyint_min=24 / scenecut=40 / intra_refresh=0 / rc_lookahead=50 / rc=abr / mbtree=1 / bitrate=3500 / ratetol=1.0 / qcomp=0.60 / qpmin=0 / qpmax=69 / qpstep=4 / vbv_maxrate=62500 / vbv_bufsize=78125 / nal_hrd=none / filler=0 / ip_ratio=1.40 / aq=1:1.00
    Default                     : Yes
    Forced                      : No
    Color range                 : Limited
    Color primaries             : BT.709
    Transfer characteristics    : BT.709
    Matrix coefficients         : BT.709

    Audio #1
    ID                          : 2
    Format                      : AC-3
    Format/Info                 : Audio Coding 3
    Commercial name             : Dolby Digital
    Codec ID                    : A_AC3
    Duration                    : 1 h 57 min
    Bit rate mode               : Constant
    Bit rate                    : 448 kb/s
    Channel(s)                  : 6 channels
    Channel layout              : L R C LFE Ls Rs
    Sampling rate               : 48.0 kHz
    Frame rate                  : 31.250 FPS (1536 SPF)
    Compression mode            : Lossy
    Delay relative to video     : 1 s 0 ms
    Stream size                 : 378 MiB (10%)
    Language                    : Spanish
    Service kind                : Complete Main
    Default                     : No
    Forced                      : No

    Audio #2
    ID                          : 3
    Format                      : AC-3
    Format/Info                 : Audio Coding 3
    Commercial name             : Dolby Digital
    Codec ID                    : A_AC3
    Duration                    : 1 h 57 min
    Bit rate mode               : Constant
    Bit rate                    : 640 kb/s
    Channel(s)                  : 6 channels
    Channel layout              : L R C LFE Ls Rs
    Sampling rate               : 48.0 kHz
    Frame rate                  : 31.250 FPS (1536 SPF)
    Compression mode            : Lossy
    Stream size                 : 540 MiB (14%)
    Language                    : English
    Service kind                : Complete Main
    Default                     : Yes
    Forced                      : No

    Text #1
    ID                          : 4
    Format                      : UTF-8
    Codec ID                    : S_TEXT/UTF8
    Codec ID/Info               : UTF-8 Plain Text
    Duration                    : 1 h 37 min
    Bit rate                    : 0 b/s
    Count of elements           : 20
    Stream size                 : 550 Bytes (0%)
    Title                       : SRT-Forzados
    Language                    : Spanish
    Default                     : Yes
    Forced                      : No

    Text #2
    ID                          : 5
    Format                      : UTF-8
    Codec ID                    : S_TEXT/UTF8
    Codec ID/Info               : UTF-8 Plain Text
    Duration                    : 1 h 50 min
    Bit rate                    : 63 b/s
    Count of elements           : 1355
    Stream size                 : 51.7 KiB (0%)
    Title                       : SRT-Completos
    Language                    : Spanish
    Default                     : No
    Forced                      : No

    Menu
    00:00:00.000                : :Capítulo 01
    00:03:25.455                : :Capítulo 02
    00:08:46.151                : :Capítulo 03
    00:11:55.465                : :Capítulo 04
    00:16:55.264                : :Capítulo 05
    00:18:43.873                : :Capítulo 06
    00:23:37.416                : :Capítulo 07
    00:26:50.734                : :Capítulo 08
    00:31:59.292                : :Capítulo 09
    00:33:38.016                : :Capítulo 10
    00:36:24.557                : :Capítulo 11
    00:38:43.321                : :Capítulo 12
    00:39:34.747                : :Capítulo 13
    00:42:12.405                : :Capítulo 14
    00:44:19.907                : :Capítulo 15
    00:48:43.546                : :Capítulo 16
    00:52:56.548                : :Capítulo 17
    00:58:44.896                : :Capítulo 18
    01:06:15.972                : :Capítulo 19
    01:11:08.514                : :Capítulo 20
    01:13:44.295                : :Capítulo 21
    01:17:31.021                : :Capítulo 22
    01:19:39.650                : :Capítulo 23
    01:21:24.630                : :Capítulo 24
    01:26:48.203                : :Capítulo 25
    01:32:53.318                : :Capítulo 26
    01:34:19.779                : :Capítulo 27
    01:38:28.903                : :Capítulo 28
    01:40:07.460                : :Capítulo 29
    01:44:13.831                : :Capítulo 30
    01:48:40.347                : :Capítulo 31
    01:51:49.286                : :Capítulo 32

  • Peso: 3.76 GiB

Sinopsis

Hace ya tiempo que Randall «Memphis» Raines ha dejado atrás su pasado delictivo. Pero cuando se entera de que su hermano está en peligro, para salvarlo se ve obligado a hacer lo que mejor sabe hacer: robar coches: 50 coches y un contrato. Fanático del automovilismo, Memphis es una leyenda en el negocio de robo de coches. No se le resiste ninguna cerradura, ninguna alarma.

Ficha técnica

Video trailer de la película

Enlaces de descarga

Rip de Bluray

Descargar 60 segundos (2000) HD 1080p Latino – CMHDD




Aportes de DPeliculasHDmega la pass es:dpeliculashdmega.org Aportes de CinemaniaHD la pass es:cinemaniahdd.com
Guardado en : Acción , Crimen , HD 1080p , Suspenso

Películas relacionadas

descargar 60 segundos (2000) HD 1080p Latino – CMHDD 1080p 1080p gratis, 60 segundos (2000) HD 1080p Latino – CMHDD 1080p mega 1 link, 60 segundos (2000) HD 1080p Latino – CMHDD 1080p pelicula completa, descargar 60 segundos (2000) HD 1080p Latino – CMHDD 1080p gratis en mega.

60 segundos (2000) HD 1080p Latino – CMHDD pelicula full hd, 60 segundos (2000) HD 1080p Latino – CMHDD mega latino, 60 segundos (2000) HD 1080p Latino – CMHDD 4k latino, 60 segundos (2000) HD 1080p Latino – CMHDD pelicula completa, 60 segundos (2000) HD 1080p Latino – CMHDD descargar gratis, descargar 60 segundos (2000) HD 1080p Latino – CMHDD pelicula latino, 60 segundos (2000) HD 1080p Latino – CMHDD 1 link mega, 60 segundos (2000) HD 1080p Latino – CMHDD 1 link google drive, 60 segundos (2000) HD 1080p Latino – CMHDD hd 1080p latino.
Comentarios 0