×

¿Problemas para descargar con Mozilla, EDGE? Deshabilita la opción "Abrir vinculos en una pestaña nueva" tal como lo muestra ésta imagen.

55 Pasos (2018) WEB-DL 1080p Latino

702 vistas

Información de 55 Pasos (2018) WEB-DL 1080p Latino

55 pasos 55 steps 56649 poster

Datos de la película

  • Calidad: WEBDL
  • Audio: Español Latino AC3 2.0 Capturado - Ingles AC3 5.1 WEBDL
  • Subtitulos: Español Latino SRT
  • Resolución: 1916X802
  • Formato: MKV
  • Codec: H.264
  • Encoder: EVO
  • Mediainfo: Clic para Mostrar Datos Ver
  • 55 Steps (2018) WEBDL 1080p Latino.mkv
    Format                      : Matroska
    Format version              : Version 4
    File size                   : 4.13 GiB
    Duration                    : 1 h 54 min
    Overall bit rate            : 5 178 kb/s
    Encoded date                : UTC 2019-09-06 19:55:25
    Writing application         : mkvmerge v35.0.0 ('All The Love In The World') 64-bit
    Writing library             : libebml v1.3.9 + libmatroska v1.5.2

    Video
    ID                          : 1
    Format                      : AVC
    Format/Info                 : Advanced Video Codec
    Format profile              : High@L4
    Format settings             : CABAC / 5 Ref Frames
    Format settings, CABAC      : Yes
    Format settings, ReFrames   : 5 frames
    Codec ID                    : V_MPEG4/ISO/AVC
    Duration                    : 1 h 54 min
    Bit rate                    : 4 535 kb/s
    Width                       : 1 916 pixels
    Height                      : 802 pixels
    Display aspect ratio        : 2.40:1
    Frame rate mode             : Constant
    Frame rate                  : 23.976 FPS
    Color space                 : YUV
    Chroma subsampling          : 4:2:0
    Bit depth                   : 8 bits
    Scan type                   : Progressive
    Bits/(Pixel*Frame)          : 0.123
    Stream size                 : 3.61 GiB (88%)
    Language                    : English
    Default                     : Yes
    Forced                      : No
    Color range                 : Limited
    Color primaries             : BT.709
    Transfer characteristics    : BT.709
    Matrix coefficients         : BT.709

    Audio #1
    ID                          : 2
    Format                      : AC-3
    Format/Info                 : Audio Coding 3
    Commercial name             : Dolby Digital
    Codec ID                    : A_AC3
    Duration                    : 1 h 54 min
    Bit rate mode               : Constant
    Bit rate                    : 256 kb/s
    Channel(s)                  : 2 channels
    Channel layout              : L R
    Sampling rate               : 48.0 kHz
    Frame rate                  : 31.250 FPS (1536 SPF)
    Bit depth                   : 16 bits
    Compression mode            : Lossy
    Stream size                 : 209 MiB (5%)
    Language                    : Spanish
    Service kind                : Complete Main
    Default                     : Yes
    Forced                      : No

    Audio #2
    ID                          : 3
    Format                      : AC-3
    Format/Info                 : Audio Coding 3
    Commercial name             : Dolby Digital
    Codec ID                    : A_AC3
    Duration                    : 1 h 54 min
    Bit rate mode               : Constant
    Bit rate                    : 384 kb/s
    Channel(s)                  : 6 channels
    Channel layout              : L R C LFE Ls Rs
    Sampling rate               : 48.0 kHz
    Frame rate                  : 31.250 FPS (1536 SPF)
    Bit depth                   : 16 bits
    Compression mode            : Lossy
    Stream size                 : 313 MiB (7%)
    Language                    : English
    Service kind                : Complete Main
    Default                     : No
    Forced                      : No

    Text
    ID                          : 4
    Format                      : UTF-8
    Codec ID                    : S_TEXT/UTF8
    Codec ID/Info               : UTF-8 Plain Text
    Duration                    : 1 h 53 min
    Bit rate                    : 71 b/s
    Count of elements           : 1537
    Stream size                 : 59.5 KiB (0%)
    Language                    : Spanish
    Default                     : Yes
    Forced                      : No

    Menu
    00:00:00.000                : en:1
    00:06:39.733                : en:2
    00:15:09.909                : en:3
    00:21:17.276                : en:4
    00:29:02.783                : en:5
    00:35:57.488                : en:6
    00:43:11.129                : en:7
    00:49:59.161                : en:8
    00:54:53.287                : en:9
    01:02:31.535                : en:10
    01:09:08.806                : en:11
    01:17:23.842                : en:12
    01:23:30.500                : en:13
    01:30:31.712                : en:14
    01:35:01.397                : en:15
    01:42:42.733                : en:16

  • Peso: 4.13 GiB

Sinopsis

Colette Hughes, abogada de los derechos de los pacientes, va a defender a nueva cliente, Eleanor Riese, una paciente de la unidad psiquiátrica de un hospital de San Francisco. Hughes no se imagina que, además de emprender una batalla legal para mejorar el tratamiento de los enfermos mentales en los hospitales, transformará su vida.

Ficha técnica

Video trailer de la película

Enlaces de descarga

Rip de Bluray

Descargar 55 Pasos (2018) WEB-DL 1080p Latino




Aportes de DPeliculasHDmega la pass es:dpeliculashdmega.org Aportes de CinemaniaHD la pass es:cinemaniahdd.com
Guardado en : Drama

Películas relacionadas

descargar 55 Pasos (2018) WEB-DL 1080p Latino WEBDL 1080p gratis, 55 Pasos (2018) WEB-DL 1080p Latino WEBDL mega 1 link, 55 Pasos (2018) WEB-DL 1080p Latino WEBDL pelicula completa, descargar 55 Pasos (2018) WEB-DL 1080p Latino WEBDL gratis en mega.

55 Pasos (2018) WEB-DL 1080p Latino pelicula full hd, 55 Pasos (2018) WEB-DL 1080p Latino mega latino, 55 Pasos (2018) WEB-DL 1080p Latino 4k latino, 55 Pasos (2018) WEB-DL 1080p Latino pelicula completa, 55 Pasos (2018) WEB-DL 1080p Latino descargar gratis, descargar 55 Pasos (2018) WEB-DL 1080p Latino pelicula latino, 55 Pasos (2018) WEB-DL 1080p Latino 1 link mega, 55 Pasos (2018) WEB-DL 1080p Latino 1 link google drive, 55 Pasos (2018) WEB-DL 1080p Latino hd 1080p latino.
Comentarios 0