×

¿Problemas para descargar con Mozilla, EDGE? Deshabilita la opción "Abrir vinculos en una pestaña nueva" tal como lo muestra ésta imagen.

500 días con ella (2009) Full HD 1080p Latino – CMHDD

364 vistas

Información de 500 días con ella (2009) Full HD 1080p Latino – CMHDD

Datos de la película

  • Calidad: Full 1080p
  • Audio: Español Latino DTS 5.1 BLURAY - Ingles DTS 5.1 BLURAY
  • Subtitulos: Español Latino SRT- FORZADOS SRT
  • Resolución: 1920x1080p
  • Formato: MKV
  • Codec: H.264
  • Encoder: Dracarys
  • Mediainfo: Clic para Mostrar Datos Ver
  • Format                      : Matroska
    Format version              : Version 4
    File size                   : 7.12 GiB
    Duration                    : 1 h 35 min
    Overall bit rate mode       : Variable
    Overall bit rate            : 10.7 Mb/s
    Movie name                  : 500 días con ella (2009) Full HD 1080p Latino - CMHDD
    Encoded date                : UTC 2020-05-23 06:30:56
    Writing application         : mkvmerge v46.0.0 ('No Deeper Escape') 64-bit
    Writing library             : libebml v1.3.10 + libmatroska v1.5.2 / Lavf58.29.100

    Video
    ID                          : 1
    Format                      : AVC
    Format/Info                 : Advanced Video Codec
    Format profile              : High@L4.1
    Format settings             : CABAC / 4 Ref Frames
    Format settings, CABAC      : Yes
    Format settings, Reference  : 4 frames
    Codec ID                    : V_MPEG4/ISO/AVC
    Duration                    : 1 h 35 min
    Bit rate                    : 6 533 kb/s
    Width                       : 1 920 pixels
    Height                      : 1 080 pixels
    Display aspect ratio        : 16:9
    Frame rate mode             : Constant
    Frame rate                  : 23.976 (24000/1001) FPS
    Color space                 : YUV
    Chroma subsampling          : 4:2:0
    Bit depth                   : 8 bits
    Scan type                   : Progressive
    Bits/(Pixel*Frame)          : 0.131
    Stream size                 : 4.34 GiB (61%)
    Writing library             : x264 core 157 r2935 545de2f
    Encoding settings           : cabac=1 / ref=4 / deblock=1:0:0 / analyse=0x3:0x133 / me=tesa / subme=11 / psy=1 / psy_rd=1.00:0.00 / mixed_ref=1 / me_range=24 / chroma_me=1 / trellis=2 / 8x8dct=1 / cqm=0 / deadzone=21,11 / fast_pskip=0 / chroma_qp_offset=-2 / threads=24 / lookahead_threads=6 / sliced_threads=0 / nr=0 / decimate=1 / interlaced=0 / bluray_compat=0 / constrained_intra=0 / bframes=16 / b_pyramid=2 / b_adapt=2 / b_bias=0 / direct=3 / weightb=1 / open_gop=0 / weightp=2 / keyint=240 / keyint_min=24 / scenecut=40 / intra_refresh=0 / rc_lookahead=60 / rc=crf / mbtree=1 / crf=20.0 / qcomp=0.60 / qpmin=0 / qpmax=69 / qpstep=4 / vbv_maxrate=62500 / vbv_bufsize=78125 / crf_max=0.0 / nal_hrd=none / filler=0 / ip_ratio=1.40 / aq=1:1.00
    Default                     : Yes
    Forced                      : No
    Color range                 : Limited
    Color primaries             : BT.709
    Transfer characteristics    : BT.709
    Matrix coefficients         : BT.709

    Audio #1
    ID                          : 2
    Format                      : DTS
    Format/Info                 : Digital Theater Systems
    Codec ID                    : A_DTS
    Duration                    : 1 h 35 min
    Bit rate mode               : Constant
    Bit rate                    : 768 kb/s
    Channel(s)                  : 6 channels
    Channel layout              : C L R Ls Rs LFE
    Sampling rate               : 48.0 kHz
    Frame rate                  : 93.750 FPS (512 SPF)
    Bit depth                   : 24 bits
    Compression mode            : Lossy
    Stream size                 : 522 MiB (7%)
    Language                    : Spanish
    Default                     : Yes
    Forced                      : No

    Audio #2
    ID                          : 3
    Format                      : DTS XLL
    Format/Info                 : Digital Theater Systems
    Commercial name             : DTS-HD Master Audio
    Codec ID                    : A_DTS
    Duration                    : 1 h 35 min
    Bit rate mode               : Variable
    Bit rate                    : 3 405 kb/s
    Channel(s)                  : 6 channels
    Channel layout              : C L R Ls Rs LFE
    Sampling rate               : 48.0 kHz
    Frame rate                  : 93.750 FPS (512 SPF)
    Bit depth                   : 24 bits
    Compression mode            : Lossless
    Stream size                 : 2.26 GiB (32%)
    Language                    : English
    Default                     : No
    Forced                      : No

    Text #1
    ID                          : 4
    Format                      : UTF-8
    Codec ID                    : S_TEXT/UTF8
    Codec ID/Info               : UTF-8 Plain Text
    Duration                    : 1 h 29 min
    Bit rate                    : 2 b/s
    Count of elements           : 41
    Stream size                 : 1.44 KiB (0%)
    Title                       : SRT-Forzados
    Language                    : Spanish
    Default                     : Yes
    Forced                      : No

    Text #2
    ID                          : 5
    Format                      : UTF-8
    Codec ID                    : S_TEXT/UTF8
    Codec ID/Info               : UTF-8 Plain Text
    Duration                    : 1 h 34 min
    Bit rate                    : 57 b/s
    Count of elements           : 1140
    Stream size                 : 39.9 KiB (0%)
    Title                       : SRT-Completos
    Language                    : Spanish
    Default                     : No
    Forced                      : No

    Text #3
    ID                          : 6
    Format                      : PGS
    Muxing mode                 : zlib
    Codec ID                    : S_HDMV/PGS
    Codec ID/Info               : Picture based subtitle format used on BDs/HD-DVDs
    Duration                    : 1 h 34 min
    Bit rate                    : 42.9 kb/s
    Count of elements           : 2282
    Stream size                 : 29.0 MiB (0%)
    Title                       : PGS-Completos
    Language                    : Spanish
    Default                     : No
    Forced                      : No

    Menu
    00:00:00.000                : :00:00:00.000
    00:03:57.779                : :00:03:57.779
    00:07:05.425                : :00:07:05.425
    00:09:19.184                : :00:09:19.184
    00:13:34.147                : :00:13:34.147
    00:14:22.320                : :00:14:22.320
    00:16:53.429                : :00:16:53.429
    00:19:18.699                : :00:19:18.699
    00:24:29.927                : :00:24:29.927
    00:27:00.285                : :00:27:00.285
    00:30:39.755                : :00:30:39.755
    00:33:27.422                : :00:33:27.422
    00:35:33.506                : :00:35:33.506
    00:38:14.375                : :00:38:14.375
    00:43:46.874                : :00:43:46.874
    00:52:24.141                : :00:52:24.141
    00:56:47.154                : :00:56:47.154
    01:00:26.039                : :01:00:26.039
    01:06:24.731                : :01:06:24.731
    01:10:49.787                : :01:10:49.787
    01:15:15.052                : :01:15:15.052
    01:19:00.778                : :01:19:00.778
    01:21:22.920                : :01:21:22.920
    01:27:08.557                : :01:27:08.557

  • Peso: 7.12 GiB

Sinopsis

Tom aún sigue creyendo, incluso en este cínico mundo moderno, en la noción de un amor transformador, predestinado por el cosmos y que golpea como un rayo sólo una vez. Summer no cree lo mismo, para nada. La mecha se enciende desde el primer día, cuando Tom, un arquitecto en ciernes convertido en un sensiblero escritor de tarjetas de felicitación, se encuentra con Summer, la bella y fresca nueva secretaria de su jefe. Aunque aparentemente está fuera de su alcance, Tom pronto descubre que tienen un montón de cosas en común. La historia de Tom y Summer cubre desde el enamoramiento, las citas y el sexo hasta la separación, las recriminaciones y la redención, todo lo cual se suma al caleidoscópico retrato del por qué y el cómo seguimos esforzándonos de modo tan risible y rastrero para encontrar sentido al amor… y esperar convertirlo en realidad.

Ficha técnica

Video trailer de la película

Enlaces de descarga

Rip de Bluray

Descargar 500 días con ella (2009) Full HD 1080p Latino – CMHDD




Aportes de DPeliculasHDmega la pass es:dpeliculashdmega.org Aportes de CinemaniaHD la pass es:cinemaniahdd.com

Películas relacionadas

  • Togo (2022) NF WEB-DL 1080p Latino

    Togo (2022) NF WEB-DL 1080p Latino

    2022
    Togo (2022) NF WEB-DL 1080p Latino

    1h 35m 2022

    Descargar Togo (2022) NF WEB-DL 1080p Latino. Los narcos de poca monta están copando las calles de Montevideo...

    Director: Adrián Caetano

    Género: Crimen

    Actores: Tito Prieto

  • El Ultimo Juego (2021) WEB-DL 1080p Latino

    El Ultimo Juego (2021) WEB-DL 1080p Latino

    2021
    El Ultimo Juego (2021) WEB-DL 1080p Latino

    1h 21m 2021

    Descargar El Ultimo Juego (2021) WEB-DL 1080p Latino. 6 extraños se despiertan dentro de una habitación...

    Director: John David Moffat IV

    Género: Drama

    Actores: Yasmin Irvine

  • DC Liga De Supermascotas (2022) HD 1080p Latino

    DC Liga De Supermascotas (2022) HD 1080p Latino

    2022
    DC Liga De Supermascotas (2022) HD 1080p Latino

    1h 45m 2022

    Descargar DC Liga De Supermascotas (2022) HD 1080p Latino. Krypto el Superperro y Superman son amigos...

    Director: Sam Levine

    Género: Acción

    Actores: Yvette Nicole Brown

descargar 500 días con ella (2009) Full HD 1080p Latino – CMHDD Full 1080p 1080p gratis, 500 días con ella (2009) Full HD 1080p Latino – CMHDD Full 1080p mega 1 link, 500 días con ella (2009) Full HD 1080p Latino – CMHDD Full 1080p pelicula completa, descargar 500 días con ella (2009) Full HD 1080p Latino – CMHDD Full 1080p gratis en mega.

500 días con ella (2009) Full HD 1080p Latino – CMHDD pelicula full hd, 500 días con ella (2009) Full HD 1080p Latino – CMHDD mega latino, 500 días con ella (2009) Full HD 1080p Latino – CMHDD 4k latino, 500 días con ella (2009) Full HD 1080p Latino – CMHDD pelicula completa, 500 días con ella (2009) Full HD 1080p Latino – CMHDD descargar gratis, descargar 500 días con ella (2009) Full HD 1080p Latino – CMHDD pelicula latino, 500 días con ella (2009) Full HD 1080p Latino – CMHDD 1 link mega, 500 días con ella (2009) Full HD 1080p Latino – CMHDD 1 link google drive, 500 días con ella (2009) Full HD 1080p Latino – CMHDD hd 1080p latino.
Comentarios 0