×

¿Problemas para descargar con Mozilla, EDGE? Deshabilita la opción "Abrir vinculos en una pestaña nueva" tal como lo muestra ésta imagen.

500 Days of Summer (2009) WEB-DL 4K HDR Latino – CMHDD

131 vistas

Información de 500 Days of Summer (2009) WEB-DL 4K HDR Latino – CMHDD

Datos de la película

  • Calidad: 4K HDR
  • Audio: Español Latino AC3 5.1 WEB-DL - Ingles AC3 5.1 WEB-DL
  • Subtitulos: Español Latino SRT- FORZADOS SRT
  • Resolución: 3840x2160p
  • Formato: MKV
  • Codec: H.264
  • Encoder: Dracarys
  • Mediainfo: Clic para Mostrar Datos Ver
  • Format                      : Matroska
    Format version              : Version 4
    File size                   : 11.6 GiB
    Duration                    : 1 h 35 min
    Overall bit rate            : 17.4 Mb/s
    Movie name                  : 500 Days of Summer (2009) WEB-DL 4K HDR Latino - CMHDD
    Encoded date                : UTC 2023-12-14 15:23:38
    Writing application         : mkvmerge v47.0.0 ('Black Flag') 64-bit
    Writing library             : libebml v1.3.10 + libmatroska v1.5.2

    Video
    ID                          : 1
    Format                      : HEVC
    Format/Info                 : High Efficiency Video Coding
    Format profile              : Main 10@L5@High
    HDR format                  : SMPTE ST 2086, HDR10 compatible
    Codec ID                    : V_MPEGH/ISO/HEVC
    Duration                    : 1 h 35 min
    Bit rate                    : 16.5 Mb/s
    Width                       : 3 840 pixels
    Height                      : 2 160 pixels
    Display aspect ratio        : 16:9
    Frame rate mode             : Constant
    Frame rate                  : 23.976 (24000/1001) FPS
    Color space                 : YUV
    Chroma subsampling          : 4:2:0
    Bit depth                   : 10 bits
    Bits/(Pixel*Frame)          : 0.083
    Stream size                 : 11.0 GiB (95%)
    Title                       : ]
    Default                     : Yes
    Forced                      : No
    Color range                 : Limited
    Color primaries             : BT.2020
    Transfer characteristics    : PQ
    Matrix coefficients         : BT.2020 non-constant
    Mastering display color pri : Display P3
    Mastering display luminance : min: 0.0050 cd/m2, max: 1000 cd/m2

    Audio #1
    ID                          : 2
    Format                      : E-AC-3
    Format/Info                 : Enhanced AC-3
    Commercial name             : Dolby Digital Plus
    Codec ID                    : A_EAC3
    Duration                    : 1 h 35 min
    Bit rate mode               : Constant
    Bit rate                    : 640 kb/s
    Channel(s)                  : 6 channels
    Channel layout              : L R C LFE Ls Rs
    Sampling rate               : 48.0 kHz
    Frame rate                  : 31.250 FPS (1536 SPF)
    Compression mode            : Lossy
    Delay relative to video     : 3 s 214 ms
    Stream size                 : 435 MiB (4%)
    Language                    : Spanish
    Service kind                : Complete Main
    Default                     : Yes
    Forced                      : No

    Audio #2
    ID                          : 3
    Format                      : E-AC-3
    Format/Info                 : Enhanced AC-3
    Commercial name             : Dolby Digital Plus
    Codec ID                    : A_EAC3
    Duration                    : 1 h 35 min
    Bit rate mode               : Constant
    Bit rate                    : 256 kb/s
    Channel(s)                  : 6 channels
    Channel layout              : L R C LFE Ls Rs
    Sampling rate               : 48.0 kHz
    Frame rate                  : 31.250 FPS (1536 SPF)
    Compression mode            : Lossy
    Stream size                 : 174 MiB (1%)
    Language                    : English
    Service kind                : Complete Main
    Default                     : No
    Forced                      : No

    Text #1
    ID                          : 4
    Format                      : UTF-8
    Codec ID                    : S_TEXT/UTF8
    Codec ID/Info               : UTF-8 Plain Text
    Duration                    : 1 h 19 min
    Bit rate                    : 0 b/s
    Frame rate                  : 0.003 FPS
    Count of elements           : 15
    Stream size                 : 384 Bytes (0%)
    Title                       : Forzados
    Language                    : Spanish
    Default                     : Yes
    Forced                      : Yes

    Text #2
    ID                          : 5
    Format                      : UTF-8
    Codec ID                    : S_TEXT/UTF8
    Codec ID/Info               : UTF-8 Plain Text
    Duration                    : 1 h 29 min
    Bit rate                    : 58 b/s
    Frame rate                  : 0.212 FPS
    Count of elements           : 1146
    Stream size                 : 38.5 KiB (0%)
    Language                    : Spanish
    Default                     : No
    Forced                      : No

     

  • Peso: 11.6 GiB

Sinopsis

Tom aún sigue creyendo, incluso en este cínico mundo moderno, en la noción de un amor transformador, predestinado por el cosmos y que golpea como un rayo sólo una vez. Summer no cree lo mismo, para nada. La mecha se enciende desde el primer día, cuando Tom, un arquitecto en ciernes convertido en un sensiblero escritor de tarjetas de felicitación, se encuentra con Summer, la bella y fresca nueva secretaria de su jefe. Aunque aparentemente está fuera de su alcance, Tom pronto descubre que tienen un montón de cosas en común. La historia de Tom y Summer cubre desde el enamoramiento, las citas y el sexo hasta la separación, las recriminaciones y la redención, todo lo cual se suma al caleidoscópico retrato del por qué y el cómo seguimos esforzándonos de modo tan risible y rastrero para encontrar sentido al amor… y esperar convertirlo en realidad.

Ficha técnica

Video trailer de la película

Enlaces de descarga

Rip de Bluray

Descargar 500 Days of Summer (2009) WEB-DL 4K HDR Latino – CMHDD




Aportes de DPeliculasHDmega la pass es:dpeliculashdmega.org Aportes de CinemaniaHD la pass es:cinemaniahdd.com Aportes recientes:cinemaniahdd.net
Guardado en : Comedia , Drama , Romance

Películas relacionadas

descargar 500 Days of Summer (2009) WEB-DL 4K HDR Latino – CMHDD 4K HDR 1080p gratis, 500 Days of Summer (2009) WEB-DL 4K HDR Latino – CMHDD 4K HDR mega 1 link, 500 Days of Summer (2009) WEB-DL 4K HDR Latino – CMHDD 4K HDR pelicula completa, descargar 500 Days of Summer (2009) WEB-DL 4K HDR Latino – CMHDD 4K HDR gratis en mega.

500 Days of Summer (2009) WEB-DL 4K HDR Latino – CMHDD pelicula full hd, 500 Days of Summer (2009) WEB-DL 4K HDR Latino – CMHDD mega latino, 500 Days of Summer (2009) WEB-DL 4K HDR Latino – CMHDD 4k latino, 500 Days of Summer (2009) WEB-DL 4K HDR Latino – CMHDD pelicula completa, 500 Days of Summer (2009) WEB-DL 4K HDR Latino – CMHDD descargar gratis, descargar 500 Days of Summer (2009) WEB-DL 4K HDR Latino – CMHDD pelicula latino, 500 Days of Summer (2009) WEB-DL 4K HDR Latino – CMHDD 1 link mega, 500 Days of Summer (2009) WEB-DL 4K HDR Latino – CMHDD 1 link google drive, 500 Days of Summer (2009) WEB-DL 4K HDR Latino – CMHDD hd 1080p latino.
Comentarios 0