×

¿Problemas para descargar con Mozilla, EDGE? Deshabilita la opción "Abrir vinculos en una pestaña nueva" tal como lo muestra ésta imagen.

500 Days of Summer (2009) REMUX 1080p Latino – CMHDD

168 vistas

Información de 500 Days of Summer (2009) REMUX 1080p Latino – CMHDD

Datos de la película

  • Calidad: Full 1080p
  • Audio: Español Latino AC3 5.1 BLURAY - Ingles DTS 5.1 BLURAY
  • Subtitulos: Español Latino PGS
  • Resolución: 1920x1080p
  • Formato: MKV
  • Codec: H.264
  • Encoder: Dracarys
  • Mediainfo: Clic para Mostrar Datos Ver
  • Format                      : Matroska
    Format version              : Version 4
    File size                   : 26.1 GiB
    Duration                    : 1 h 35 min
    Overall bit rate mode       : Variable
    Overall bit rate            : 39.2 Mb/s
    Movie name                  : 500 Days of Summer (2009) REMUX 1080p Latino - CMHDD
    Encoded date                : UTC 2021-07-07 03:56:17
    Writing application         : mkvmerge v56.1.0 ('My Friend') 64-bit
    Writing library             : libebml v1.4.2 + libmatroska v1.6.4
    Cover                       : Yes
    Attachments                 : cover.jpg

    Video
    ID                          : 1
    ID in the original source m : 4113 (0x1011)
    Format                      : AVC
    Format/Info                 : Advanced Video Codec
    Format profile              : High@L4.1
    Format settings             : CABAC / 4 Ref Frames
    Format settings, CABAC      : Yes
    Format settings, Reference  : 4 frames
    Codec ID                    : V_MPEG4/ISO/AVC
    Duration                    : 1 h 35 min
    Bit rate mode               : Variable
    Bit rate                    : 34.9 Mb/s
    Maximum bit rate            : 37.0 Mb/s
    Width                       : 1 920 pixels
    Height                      : 1 080 pixels
    Display aspect ratio        : 16:9
    Frame rate mode             : Constant
    Frame rate                  : 23.976 (24000/1001) FPS
    Color space                 : YUV
    Chroma subsampling          : 4:2:0
    Bit depth                   : 8 bits
    Scan type                   : Progressive
    Bits/(Pixel*Frame)          : 0.702
    Stream size                 : 23.2 GiB (89%)
    Default                     : Yes
    Forced                      : No
    Color range                 : Limited
    Color primaries             : BT.709
    Transfer characteristics    : BT.709
    Matrix coefficients         : BT.709
    Original source medium      : Blu-ray

    Audio #1
    ID                          : 2
    ID in the original source m : 4352 (0x1100)
    Format                      : DTS XLL
    Format/Info                 : Digital Theater Systems
    Commercial name             : DTS-HD Master Audio
    Codec ID                    : A_DTS
    Duration                    : 1 h 35 min
    Bit rate mode               : Variable
    Bit rate                    : 3 405 kb/s
    Channel(s)                  : 6 channels
    Channel layout              : C L R Ls Rs LFE
    Sampling rate               : 48.0 kHz
    Frame rate                  : 93.750 FPS (512 SPF)
    Bit depth                   : 24 bits
    Compression mode            : Lossless
    Stream size                 : 2.26 GiB (9%)
    Language                    : English
    Default                     : No
    Forced                      : No
    Original source medium      : Blu-ray

    Audio #2
    ID                          : 3
    ID in the original source m : 4353 (0x1101)
    Format                      : AC-3
    Format/Info                 : Audio Coding 3
    Commercial name             : Dolby Digital
    Codec ID                    : A_AC3
    Duration                    : 1 h 35 min
    Bit rate mode               : Constant
    Bit rate                    : 448 kb/s
    Channel(s)                  : 6 channels
    Channel layout              : L R C LFE Ls Rs
    Sampling rate               : 48.0 kHz
    Frame rate                  : 31.250 FPS (1536 SPF)
    Compression mode            : Lossy
    Stream size                 : 305 MiB (1%)
    Language                    : English
    Service kind                : Complete Main
    Default                     : No
    Forced                      : No
    Original source medium      : Blu-ray

    Audio #3
    ID                          : 4
    ID in the original source m : 4354 (0x1102)
    Format                      : AC-3
    Format/Info                 : Audio Coding 3
    Commercial name             : Dolby Digital
    Codec ID                    : A_AC3
    Duration                    : 1 h 35 min
    Bit rate mode               : Constant
    Bit rate                    : 448 kb/s
    Channel(s)                  : 6 channels
    Channel layout              : L R C LFE Ls Rs
    Sampling rate               : 48.0 kHz
    Frame rate                  : 31.250 FPS (1536 SPF)
    Compression mode            : Lossy
    Stream size                 : 305 MiB (1%)
    Language                    : Spanish
    Service kind                : Complete Main
    Default                     : Yes
    Forced                      : No
    Original source medium      : Blu-ray

    Text
    ID                          : 5
    ID in the original source m : 4609 (0x1201)
    Format                      : PGS
    Muxing mode                 : zlib
    Codec ID                    : S_HDMV/PGS
    Codec ID/Info               : Picture based subtitle format used on BDs/HD-DVDs
    Duration                    : 1 h 34 min
    Bit rate                    : 43.0 kb/s
    Count of elements           : 2288
    Stream size                 : 29.1 MiB (0%)
    Language                    : Spanish
    Default                     : No
    Forced                      : No
    Original source medium      : Blu-ray

    Menu
    00:00:00.000                : Chapter 01
    00:03:57.779                : Chapter 02
    00:07:05.425                : Chapter 03
    00:09:19.183                : Chapter 04
    00:13:34.146                : Chapter 05
    00:14:22.319                : Chapter 06
    00:16:53.429                : Chapter 07
    00:19:18.699                : Chapter 08
    00:24:29.926                : Chapter 09
    00:27:00.285                : Chapter 10
    00:30:39.754                : Chapter 11
    00:33:27.422                : Chapter 12
    00:35:33.506                : Chapter 13
    00:38:14.375                : Chapter 14
    00:43:46.874                : Chapter 15
    00:52:24.141                : Chapter 16
    00:56:47.153                : Chapter 17
    01:00:26.039                : Chapter 18
    01:06:24.730                : Chapter 19
    01:10:49.787                : Chapter 20
    01:15:15.052                : Chapter 21
    01:19:00.777                : Chapter 22
    01:21:22.919                : Chapter 23
    01:27:08.556                : Chapter 24

  • Peso: 26.1 GiB

Sinopsis

Tom aún sigue creyendo, incluso en este cínico mundo moderno, en la noción de un amor transformador, predestinado por el cosmos y que golpea como un rayo sólo una vez. Summer no cree lo mismo, para nada. La mecha se enciende desde el primer día, cuando Tom, un arquitecto en ciernes convertido en un sensiblero escritor de tarjetas de felicitación, se encuentra con Summer, la bella y fresca nueva secretaria de su jefe. Aunque aparentemente está fuera de su alcance, Tom pronto descubre que tienen un montón de cosas en común. La historia de Tom y Summer cubre desde el enamoramiento, las citas y el sexo hasta la separación, las recriminaciones y la redención, todo lo cual se suma al caleidoscópico retrato del por qué y el cómo seguimos esforzándonos de modo tan risible y rastrero para encontrar sentido al amor… y esperar convertirlo en realidad.

Ficha técnica

Video trailer de la película

Enlaces de descarga

Rip de Bluray

Descargar 500 Days of Summer (2009) REMUX 1080p Latino – CMHDD


Aportes de DPeliculasHDmega la pass es:dpeliculashdmega.org Aportes de CinemaniaHD la pass es:cinemaniahdd.com
Guardado en : Comedia , Drama , Romance

Películas relacionadas

  • Men in Black (1997) REMUX 4K HDR Latino – CMHDD

    Men in Black (1997) REMUX 4K HDR Latino – CMHDD

    1997
    Men in Black (1997) REMUX 4K HDR Latino – CMHDD

    1h 34m 1997

    Durante muchos años los extraterrestres han vivido en la Tierra, mezclados con los humanos, sin que...

    Director: Tyrone S. Walker

    Género: Acción

    Actores: Willie C. Carpenter

  • Blonde (2022) NF WEB-DL 1080p Latino

    Blonde (2022) NF WEB-DL 1080p Latino

    2022
    Blonde (2022) NF WEB-DL 1080p Latino

    2h 46m 2022

    Descargar Blonde (2022) NF WEB-DL 1080p Latino. Basada en el bestseller de la cinco veces finalista al...

    Director: Kristin Bree Calabrese

    Género: Drama

    Actores: Xavier Samuel

  • Tren Bala (2022) WEB-DL 4K UHD HDR Latino

    Tren Bala (2022) WEB-DL 4K UHD HDR Latino

    2022
    Tren Bala (2022) WEB-DL 4K UHD HDR Latino

    2h 7m 2022

    Descargar Tren Bala (2022) WEB-DL 4K UHD HDR Latino. El desafortunado asesino "Catarina" está decidido...

    Director: Paul Barry

    Género: 4K HDR

    Actores: Zooey Miyoshi

  • Tren Bala (2022) AMZN WEB-DL 1080p Latino

    Tren Bala (2022) AMZN WEB-DL 1080p Latino

    2022
    Tren Bala (2022) AMZN WEB-DL 1080p Latino

    2h 7m 2022

    Descargar Tren Bala (2022) AMZN WEB-DL 1080p Latino. Cinco asesinos a sueldo se encuentran a bordo de...

    Director: Paul Barry

    Género: Acción

    Actores: Zooey Miyoshi

descargar 500 Days of Summer (2009) REMUX 1080p Latino – CMHDD Full 1080p 1080p gratis, 500 Days of Summer (2009) REMUX 1080p Latino – CMHDD Full 1080p mega 1 link, 500 Days of Summer (2009) REMUX 1080p Latino – CMHDD Full 1080p pelicula completa, descargar 500 Days of Summer (2009) REMUX 1080p Latino – CMHDD Full 1080p gratis en mega.

500 Days of Summer (2009) REMUX 1080p Latino – CMHDD pelicula full hd, 500 Days of Summer (2009) REMUX 1080p Latino – CMHDD mega latino, 500 Days of Summer (2009) REMUX 1080p Latino – CMHDD 4k latino, 500 Days of Summer (2009) REMUX 1080p Latino – CMHDD pelicula completa, 500 Days of Summer (2009) REMUX 1080p Latino – CMHDD descargar gratis, descargar 500 Days of Summer (2009) REMUX 1080p Latino – CMHDD pelicula latino, 500 Days of Summer (2009) REMUX 1080p Latino – CMHDD 1 link mega, 500 Days of Summer (2009) REMUX 1080p Latino – CMHDD 1 link google drive, 500 Days of Summer (2009) REMUX 1080p Latino – CMHDD hd 1080p latino.