×

¿Problemas para descargar con Mozilla, EDGE? Deshabilita la opción "Abrir vinculos en una pestaña nueva" tal como lo muestra ésta imagen.

50 First Dates (2004) REMUX 1080p Latino – CMHDD

140 vistas

Información de 50 First Dates (2004) REMUX 1080p Latino – CMHDD

Datos de la película

  • Calidad: Full 1080p
  • Audio: Español Latino AC3 5.1 BLURAY - Ingles AC3 5.1 BLURAY
  • Subtitulos: Español Latino PGS
  • Resolución: 1920x1080p
  • Formato: MKV
  • Codec: H.264
  • Encoder: Dracarys
  • Mediainfo: Clic para Mostrar Datos Ver
  • Format                      : Matroska
    Format version              : Version 4
    File size                   : 13.9 GiB
    Duration                    : 1 h 39 min
    Overall bit rate mode       : Variable
    Overall bit rate            : 20.1 Mb/s
    Movie name                  : 50 First Dates (2004) REMUX 1080p Latino - CMHDD
    Encoded date                : UTC 2023-08-18 03:13:54
    Writing application         : mkvmerge v47.0.0 ('Black Flag') 64-bit
    Writing library             : libebml v1.3.10 + libmatroska v1.5.2
    Cover                       : Yes
    Attachments                 : cover.jpg

    Video
    ID                          : 1
    ID in the original source m : 4113 (0x1011)
    Format                      : MPEG Video
    Format version              : Version 2
    Format profile              : Main@High
    Format settings             : BVOP
    Format settings, BVOP       : Yes
    Format settings, Matrix     : Default
    Codec ID                    : V_MPEG2
    Codec ID/Info               : MPEG 1 or 2 Video
    Duration                    : 1 h 39 min
    Bit rate mode               : Variable
    Bit rate                    : 17.0 Mb/s
    Maximum bit rate            : 30.0 Mb/s
    Width                       : 1 920 pixels
    Height                      : 1 080 pixels
    Display aspect ratio        : 16:9
    Frame rate mode             : Constant
    Frame rate                  : 23.976 (24000/1001) FPS
    Color space                 : YUV
    Chroma subsampling          : 4:2:0
    Bit depth                   : 8 bits
    Scan type                   : Progressive
    Compression mode            : Lossy
    Bits/(Pixel*Frame)          : 0.343
    Time code of first frame    : 00:59:59:00
    Time code source            : Group of pictures header
    GOP, Open/Closed            : Open
    GOP, Open/Closed of first f : Closed
    Stream size                 : 11.8 GiB (85%)
    Default                     : Yes
    Forced                      : No
    Original source medium      : Blu-ray

    Audio #1
    ID                          : 2
    ID in the original source m : 4352 (0x1100)
    Format                      : MLP FBA
    Format/Info                 : Meridian Lossless Packing FBA
    Commercial name             : Dolby TrueHD
    Codec ID                    : A_TRUEHD
    Duration                    : 1 h 39 min
    Bit rate mode               : Variable
    Bit rate                    : 1 690 kb/s
    Maximum bit rate            : 2 550 kb/s
    Channel(s)                  : 6 channels
    Channel layout              : L R C LFE Ls Rs
    Sampling rate               : 48.0 kHz
    Frame rate                  : 1 200.000 FPS (40 SPF)
    Compression mode            : Lossless
    Stream size                 : 1.17 GiB (8%)
    Language                    : English
    Default                     : No
    Forced                      : No
    Original source medium      : Blu-ray

    Audio #2
    ID                          : 3
    ID in the original source m : 4352 (0x1100)
    Format                      : AC-3
    Format/Info                 : Audio Coding 3
    Commercial name             : Dolby Digital
    Codec ID                    : A_AC3
    Duration                    : 1 h 39 min
    Bit rate mode               : Constant
    Bit rate                    : 640 kb/s
    Channel(s)                  : 6 channels
    Channel layout              : L R C LFE Ls Rs
    Sampling rate               : 48.0 kHz
    Frame rate                  : 31.250 FPS (1536 SPF)
    Compression mode            : Lossy
    Stream size                 : 453 MiB (3%)
    Language                    : English
    Service kind                : Complete Main
    Default                     : No
    Forced                      : No
    Original source medium      : Blu-ray

    Audio #3
    ID                          : 4
    ID in the original source m : 4353 (0x1101)
    Format                      : AC-3
    Format/Info                 : Audio Coding 3
    Commercial name             : Dolby Digital
    Codec ID                    : A_AC3
    Duration                    : 1 h 39 min
    Bit rate mode               : Constant
    Bit rate                    : 640 kb/s
    Channel(s)                  : 6 channels
    Channel layout              : L R C LFE Ls Rs
    Sampling rate               : 48.0 kHz
    Frame rate                  : 31.250 FPS (1536 SPF)
    Compression mode            : Lossy
    Stream size                 : 453 MiB (3%)
    Language                    : Spanish
    Service kind                : Complete Main
    Default                     : Yes
    Forced                      : No
    Original source medium      : Blu-ray

    Text
    ID                          : 5
    ID in the original source m : 4609 (0x1201)
    Format                      : PGS
    Muxing mode                 : zlib
    Codec ID                    : S_HDMV/PGS
    Codec ID/Info               : Picture based subtitle format used on BDs/HD-DVDs
    Duration                    : 1 h 30 min
    Bit rate                    : 38.7 kb/s
    Frame rate                  : 0.485 FPS
    Count of elements           : 2620
    Stream size                 : 24.9 MiB (0%)
    Language                    : Spanish
    Default                     : No
    Forced                      : No
    Original source medium      : Blu-ray

    Menu
    00:00:00.000                : en:Capítulo 01
    00:05:27.243                : en:Capítulo 02
    00:11:36.946                : en:Capítulo 03
    00:21:21.280                : en:Capítulo 04
    00:24:40.103                : en:Capítulo 05
    00:31:34.225                : en:Capítulo 06
    00:34:23.061                : en:Capítulo 07
    00:40:57.079                : en:Capítulo 08
    00:46:19.318                : en:Capítulo 09
    00:51:15.739                : en:Capítulo 10
    00:56:09.532                : en:Capítulo 11
    01:03:39.816                : en:Capítulo 12
    01:08:50.501                : en:Capítulo 13
    01:13:59.560                : en:Capítulo 14
    01:26:55.627                : en:Capítulo 15
    01:28:35.935                : en:Capítulo 16

  • Peso: 13.9 GiB

Sinopsis

Henry Roth es un biólogo marino de Hawaii que se pasa la vida inventando excusas para no comprometerse con las numerosas chicas con las que sale. Sin embargo, cuando conoce a la chica de sus sueños, la encantadora Lucy Whitmore, surge un extraño problema en la relación: cuando Lucy se levanta por las mañanas no recuerda absolutamente nada de lo ocurrido el día anterior, de modo que Henry no tendrá más remedio que reconquistarla cada día.

Ficha técnica

Video trailer de la película

Enlaces de descarga

Rip de Bluray

Descargar 50 First Dates (2004) REMUX 1080p Latino – CMHDD


Aportes de DPeliculasHDmega la pass es:dpeliculashdmega.org Aportes de CinemaniaHD la pass es:cinemaniahdd.com Aportes recientes:cinemaniahdd.net
Guardado en : Comedia , Romance

Películas relacionadas

  • La Duquesa (2008) Full HD 1080p Latino-CMHDD

    La Duquesa (2008) Full HD 1080p Latino-CMHDD

    2008
    La Duquesa (2008) Full HD 1080p Latino-CMHDD

    1h 51m 2008

    Descargar La Duquesa (2008) Full HD 1080p Latino-CMHDD. Hermosa, glamurosa y adorada por el pueblo, Georgiana...

    Director: Saul Dibb

    Género: Drama

    Actores: Thomas Arnold

  • La Duquesa (2008) REMUX 1080p Latino-CMHDD

    La Duquesa (2008) REMUX 1080p Latino-CMHDD

    2008
    La Duquesa (2008) REMUX 1080p Latino-CMHDD

    1h 51m 2008

    Descargar La Duquesa (2008) REMUX 1080p Latino-CMHDD. Hermosa, glamurosa y adorada por el pueblo, Georgiana...

    Director: Saul Dibb

    Género: Drama

    Actores: Thomas Arnold

  • Nada que ver (2023) WEB-DL 1080p Latino

    Nada que ver (2023) WEB-DL 1080p Latino

    2023
    Nada que ver (2023) WEB-DL 1080p Latino

    1h 30m 2023

    Descargar Nada que ver (2023) WEB-DL 1080p Latino. Después de que Carlos tiene la tarea de cuidar a...

    Director: Kenya Marquez

    Género: Comedia

    Actores: Rebecca Jones

descargar 50 First Dates (2004) REMUX 1080p Latino – CMHDD Full 1080p 1080p gratis, 50 First Dates (2004) REMUX 1080p Latino – CMHDD Full 1080p mega 1 link, 50 First Dates (2004) REMUX 1080p Latino – CMHDD Full 1080p pelicula completa, descargar 50 First Dates (2004) REMUX 1080p Latino – CMHDD Full 1080p gratis en mega.

50 First Dates (2004) REMUX 1080p Latino – CMHDD pelicula full hd, 50 First Dates (2004) REMUX 1080p Latino – CMHDD mega latino, 50 First Dates (2004) REMUX 1080p Latino – CMHDD 4k latino, 50 First Dates (2004) REMUX 1080p Latino – CMHDD pelicula completa, 50 First Dates (2004) REMUX 1080p Latino – CMHDD descargar gratis, descargar 50 First Dates (2004) REMUX 1080p Latino – CMHDD pelicula latino, 50 First Dates (2004) REMUX 1080p Latino – CMHDD 1 link mega, 50 First Dates (2004) REMUX 1080p Latino – CMHDD 1 link google drive, 50 First Dates (2004) REMUX 1080p Latino – CMHDD hd 1080p latino.
Comentarios 0