×

¿Problemas para descargar con Mozilla, EDGE? Deshabilita la opción "Abrir vinculos en una pestaña nueva" tal como lo muestra ésta imagen.

Harry Potter y la orden del Fénix (2007) REMUX 1080p Latino

456 vistas

Información de Harry Potter y la orden del Fénix (2007) REMUX 1080p Latino

Datos de la película

  • Calidad: Full 1080p
  • Audio: Español Latino AC3 5.1 BLURAY - Ingles AC3 5.1 BLURAY
  • Subtitulos: Español Latino SRT- FORZADOS SRT
  • Resolución: 1920x1080p
  • Formato: MKV
  • Codec: H.264
  • Encoder: Dracarys
  • Mediainfo: Clic para Mostrar Datos Ver
  • Format                      : Matroska
    Format version              : Version 4
    File size                   : 19.0 GiB
    Duration                    : 2 h 18 min
    Overall bit rate            : 19.7 Mb/s
    Movie name                  : CinemaniaHDD.net
    Encoded date                : UTC 2020-04-26 23:53:24
    Writing application         : mkvmerge v38.0.0 ('The Silent Type') 64-bit
    Writing library             : libebml v1.3.9 + libmatroska v1.5.2

    Video
    ID                          : 1
    Format                      : VC-1
    Format profile              : Advanced@L3
    Codec ID                    : V_MS/VFW/FOURCC / WVC1
    Codec ID/Hint               : Microsoft
    Duration                    : 2 h 18 min
    Bit rate                    : 13.8 Mb/s
    Width                       : 1 920 pixels
    Height                      : 1 080 pixels
    Display aspect ratio        : 16:9
    Frame rate mode             : Constant
    Frame rate                  : 23.976 (24000/1001) FPS
    Color space                 : YUV
    Chroma subsampling          : 4:2:0
    Bit depth                   : 8 bits
    Scan type                   : Progressive
    Compression mode            : Lossy
    Bits/(Pixel*Frame)          : 0.277
    Stream size                 : 13.3 GiB (70%)
    Language                    : English
    Default                     : Yes
    Forced                      : No

    Audio #1
    ID                          : 2
    Format                      : AC-3
    Format/Info                 : Audio Coding 3
    Commercial name             : Dolby Digital
    Codec ID                    : A_AC3
    Duration                    : 2 h 18 min
    Bit rate mode               : Constant
    Bit rate                    : 640 kb/s
    Channel(s)                  : 6 channels
    Channel layout              : L R C LFE Ls Rs
    Sampling rate               : 48.0 kHz
    Frame rate                  : 31.250 FPS (1536 SPF)
    Bit depth                   : 16 bits
    Compression mode            : Lossy
    Stream size                 : 633 MiB (3%)
    Title                       : AC3
    Language                    : Spanish
    Service kind                : Complete Main
    Default                     : Yes
    Forced                      : No

    Audio #2
    ID                          : 3
    Format                      : PCM
    Format settings             : Little / Signed
    Codec ID                    : A_PCM/INT/LIT
    Duration                    : 2 h 18 min
    Bit rate mode               : Constant
    Bit rate                    : 4 608 kb/s
    Channel(s)                  : 6 channels
    Sampling rate               : 48.0 kHz
    Frame rate                  : 32.000 FPS (1500 SPF)
    Bit depth                   : 16 bits
    Stream size                 : 4.45 GiB (23%)
    Title                       : PCM
    Language                    : English
    Default                     : No
    Forced                      : No

    Audio #3
    ID                          : 4
    Format                      : AC-3
    Format/Info                 : Audio Coding 3
    Commercial name             : Dolby Digital
    Codec ID                    : A_AC3
    Duration                    : 2 h 18 min
    Bit rate mode               : Constant
    Bit rate                    : 640 kb/s
    Channel(s)                  : 6 channels
    Channel layout              : L R C LFE Ls Rs
    Sampling rate               : 48.0 kHz
    Frame rate                  : 31.250 FPS (1536 SPF)
    Bit depth                   : 16 bits
    Compression mode            : Lossy
    Stream size                 : 633 MiB (3%)
    Title                       : AC3
    Language                    : English
    Service kind                : Complete Main
    Default                     : No
    Forced                      : No

    Text #1
    ID                          : 5
    Format                      : UTF-8
    Codec ID                    : S_TEXT/UTF8
    Codec ID/Info               : UTF-8 Plain Text
    Duration                    : 2 h 10 min
    Bit rate                    : 0 b/s
    Count of elements           : 26
    Stream size                 : 940 Bytes (0%)
    Title                       : SRT-Forzados
    Language                    : Spanish
    Default                     : Yes
    Forced                      : No

    Text #2
    ID                          : 6
    Format                      : UTF-8
    Codec ID                    : S_TEXT/UTF8
    Codec ID/Info               : UTF-8 Plain Text
    Duration                    : 2 h 10 min
    Bit rate                    : 47 b/s
    Count of elements           : 1300
    Stream size                 : 45.3 KiB (0%)
    Title                       : SRT-Completos
    Language                    : Spanish
    Default                     : No
    Forced                      : No

    Text #3
    ID                          : 7
    Format                      : PGS
    Muxing mode                 : zlib
    Codec ID                    : S_HDMV/PGS
    Codec ID/Info               : Picture based subtitle format used on BDs/HD-DVDs
    Duration                    : 2 h 17 min
    Bit rate                    : 25.2 kb/s
    Count of elements           : 2574
    Stream size                 : 24.9 MiB (0%)
    Title                       : PGS-Completos
    Language                    : Spanish
    Default                     : No
    Forced                      : No

    Menu
    00:00:00.000                : en:Dudley Demented
    00:04:50.957                : en:The Advance Guard
    00:10:16.783                : en:Number 12, Grimmauld Place
    00:15:19.919                : en:The Order of the Phoenix
    00:17:43.229                : en:The Ministry of Magic
    00:20:52.418                : en:The Hearing
    00:25:33.532                : en:The Originals
    00:28:07.352                : en:Luna Lovegood
    00:30:20.986                : en:Preserve, Perfect and Prune
    00:34:53.925                : en:Professor Umbridge's Class
    00:37:41.092                : en:Detention with Dolores
    00:41:48.506                : en:Thestrals and Sympathy
    00:44:57.528                : en:The Hogwarts High Inquisitor
    00:50:57.388                : en:In the Hog's Head
    00:56:37.394                : en:Dumbledore's Army
    01:03:28.638                : en:Under the Mistletoe
    01:07:39.055                : en:Occlumency
    01:11:16.105                : en:House of Black
    01:16:30.252                : en:Hagrid's Tale
    01:19:16.585                : en:Unquiet Escape
    01:25:30.959                : en:Grawp
    01:31:30.652                : en:Snape's Worst Memory
    01:34:49.851                : en:O.W.L.S.
    01:37:42.356                : en:Out of the Fire
    01:41:40.261                : en:Fight and Flight
    01:45:59.353                : en:The Department of Mysteries
    01:48:37.177                : en:Beyond the Veil
    01:52:40.921                : en:Side By Side
    01:57:30.710                : en:Wizards Duel
    02:03:33.239                : en:The Lost Prophecy
    02:05:50.710                : en:A Way of Coming Back
    02:08:26.866                : en:End Credits

  • Peso: 19.0 GiB

Sinopsis

Harry Potter regresa por quinto año a Hogwarts aún sacudido por la tragedia ocurrida en el Torneo de los Tres Magos. Debido a que el Ministro de la Magia niega el regreso de Lord Voldemort, Harry se convierte en el centro de atención de la comunidad mágica. Mientras lucha con sus problemas en el colegio, incluyendo a la nueva profesora Dolores Umbridge, intentará aprender más sobre la misteriosa Orden del Fénix.

Ficha técnica

Video trailer de la película

Enlaces de descarga

Rip de Bluray

Descargar Harry Potter y la orden del Fénix (2007) REMUX 1080p Latino




Aportes de DPeliculasHDmega la pass es:dpeliculashdmega.org Aportes de CinemaniaHD la pass es:cinemaniahdd.com
Guardado en : Aventura , Fantasía , Misterio , Remux

Películas relacionadas

  • Borrego: Sal Del Camino (2022) REMUX 1080p Latino

    Borrego: Sal Del Camino (2022) REMUX 1080p Latino

    2022
    Borrego: Sal Del Camino (2022) REMUX 1080p Latino

    1h 42m 2022

    Descargar Borrego: Sal Del Camino (2022) REMUX 1080p Latino. Una joven botánica se traslada a un pequeño...

    Director: Jesse Harris

    Género: Crimen

    Actores: Olivia Trujillo

  • Infiniti (2022) Primera Temporada WEB-DL 1080p Latino

    Infiniti (2022) Primera Temporada WEB-DL 1080p Latino

    2022
    Infiniti (2022) Primera Temporada WEB-DL 1080p Latino

    0h 52m 2022

    La ISS, la Estación Espacial Internacional se ha quedado en silencio. La tripulación está en peligro....

    Director: Stéphane Pannetier

    Género: Drama

    Actores: Vlad Ivanov

  • El Perfumista (2022) NF WEB-DL 1080p Latino

    El Perfumista (2022) NF WEB-DL 1080p Latino

    2022
    El Perfumista (2022) NF WEB-DL 1080p Latino

    1h 36m 2022

    Descargar El Perfumista (2022) NF WEB-DL 1080p Latino. Para recuperar su sentido del olfato y el afecto...

    Director: Nils Willbrandt

    Género: Crimen

    Actores: Sólveig Arnarsdóttir

  • La familia Monster (2022) HD 1080p Latino

    La familia Monster (2022) HD 1080p Latino

    2022
    La familia Monster (2022) HD 1080p Latino

    1h 49m 2022

    Descargar La familia Monster (2022) HD 1080p Latino. Reboot de "The Munsters", que sigue las desventuras...

    Director: Rob Zombie

    Género: Comedia

    Actores: Tomas Boykin

descargar Harry Potter y la orden del Fénix (2007) REMUX 1080p Latino Full 1080p 1080p gratis, Harry Potter y la orden del Fénix (2007) REMUX 1080p Latino Full 1080p mega 1 link, Harry Potter y la orden del Fénix (2007) REMUX 1080p Latino Full 1080p pelicula completa, descargar Harry Potter y la orden del Fénix (2007) REMUX 1080p Latino Full 1080p gratis en mega.

Harry Potter y la orden del Fénix (2007) REMUX 1080p Latino pelicula full hd, Harry Potter y la orden del Fénix (2007) REMUX 1080p Latino mega latino, Harry Potter y la orden del Fénix (2007) REMUX 1080p Latino 4k latino, Harry Potter y la orden del Fénix (2007) REMUX 1080p Latino pelicula completa, Harry Potter y la orden del Fénix (2007) REMUX 1080p Latino descargar gratis, descargar Harry Potter y la orden del Fénix (2007) REMUX 1080p Latino pelicula latino, Harry Potter y la orden del Fénix (2007) REMUX 1080p Latino 1 link mega, Harry Potter y la orden del Fénix (2007) REMUX 1080p Latino 1 link google drive, Harry Potter y la orden del Fénix (2007) REMUX 1080p Latino hd 1080p latino.
Comentarios 2