×

¿Problemas para descargar con Mozilla, EDGE? Deshabilita la opción "Abrir vinculos en una pestaña nueva" tal como lo muestra ésta imagen.

47 Ronin: La Leyenda del Samurai (2013) REMUX 1080p Latino

735 vistas

Información de 47 Ronin: La Leyenda del Samurai (2013) REMUX 1080p Latino

Datos de la película

  • Calidad: Full 1080p
  • Audio: Español Latino DTS 5.1 BLURAY - Ingles DTS-HD 5.1 BLURAY
  • Subtitulos: Español Latino PGS - Ingles PGS
  • Resolución: 1920x1080p
  • Formato: MKV
  • Codec: H.264
  • Encoder: CinefiloCool
  • Mediainfo: Clic para Mostrar Datos Ver
  • 47 Ronin (2013) REMUX 1080p Latino-CMHDD.mkv Format                      : Matroska Format version              : Version 4 File size                   : 31.2 GiB Duration                    : 1 h 58 min Overall bit rate mode       : Variable Overall bit rate            : 37.7 Mb/s Movie name                  : 47 Ronin (2013) CinemaniaHDD.Net Encoded date                : UTC 2023-01-28 15:54:14 Writing application         : mkvmerge v56.1.0 ('My Friend') 64-bit Writing library             : libebml v1.4.2 + libmatroska v1.6.4 Attachments                 : CINEMANIAHD.png Video ID                          : 1 Format                      : AVC Format/Info                 : Advanced Video Codec Format profile              : High@L4.1 Format settings             : CABAC / 4 Ref Frames Format settings, CABAC      : Yes Format settings, Reference  : 4 frames Codec ID                    : V_MPEG4/ISO/AVC Duration                    : 1 h 58 min Bit rate mode               : Variable Bit rate                    : 32.7 Mb/s Maximum bit rate            : 38.0 Mb/s Width                       : 1 920 pixels Height                      : 1 080 pixels Display aspect ratio        : 16:9 Frame rate mode             : Constant Frame rate                  : 23.976 (24000/1001) FPS Color space                 : YUV Chroma subsampling          : 4:2:0 Bit depth                   : 8 bits Scan type                   : Progressive Bits/(Pixel*Frame)          : 0.658 Stream size                 : 27.1 GiB (87%) Title                       : REMUX HD1080p [CinemaniaHDD] Default                     : Yes Forced                      : Yes Audio #1 ID                          : 2 Format                      : E-AC-3 Format/Info                 : Enhanced AC-3 Commercial name             : Dolby Digital Plus Codec ID                    : A_EAC3 Duration                    : 1 h 58 min Bit rate mode               : Constant Bit rate                    : 640 kb/s Channel(s)                  : 6 channels Channel layout              : L R C LFE Ls Rs Sampling rate               : 48.0 kHz Frame rate                  : 31.250 FPS (1536 SPF) Compression mode            : Lossy Delay relative to video     : 1 s 978 ms Stream size                 : 543 MiB (2%) Title                       : Español Latino EAC3 [CinemaniaHDD] Language                    : Spanish Service kind                : Complete Main Default                     : No Forced                      : Yes Audio #2 ID                          : 3 Format                      : DTS Format/Info                 : Digital Theater Systems Codec ID                    : A_DTS Duration                    : 1 h 58 min Bit rate mode               : Constant Bit rate                    : 768 kb/s Channel(s)                  : 6 channels Channel layout              : C L R Ls Rs LFE Sampling rate               : 48.0 kHz Frame rate                  : 93.750 FPS (512 SPF) Bit depth                   : 24 bits Compression mode            : Lossy Stream size                 : 652 MiB (2%) Title                       : Español Latino DTS [CinemaniaHDD] Language                    : Spanish Default                     : Yes Forced                      : Yes Audio #3 ID                          : 4 Format                      : DTS XLL Format/Info                 : Digital Theater Systems Commercial name             : DTS-HD Master Audio Codec ID                    : A_DTS Duration                    : 1 h 58 min Bit rate mode               : Variable Bit rate                    : 3 513 kb/s Channel(s)                  : 6 channels Channel layout              : C L R Ls Rs LFE Sampling rate               : 48.0 kHz Frame rate                  : 93.750 FPS (512 SPF) Bit depth                   : 24 bits Compression mode            : Lossless Stream size                 : 2.91 GiB (9%) Title                       : Ingles [CinemaniaHDD] Language                    : English Default                     : No Forced                      : No Text #1 ID                          : 5 Format                      : PGS Muxing mode                 : zlib Codec ID                    : S_HDMV/PGS Codec ID/Info               : Picture based subtitle format used on BDs/HD-DVDs Duration                    : 1 h 47 min Bit rate                    : 15.6 kb/s Count of elements           : 1384 Stream size                 : 12.0 MiB (0%) Title                       : Español-PGS [CinemaniaHDD] Language                    : Spanish Default                     : No Forced                      : No Text #2 ID                          : 6 Format                      : PGS Muxing mode                 : zlib Codec ID                    : S_HDMV/PGS Codec ID/Info               : Picture based subtitle format used on BDs/HD-DVDs Duration                    : 1 h 47 min Bit rate                    : 17.1 kb/s Count of elements           : 1484 Stream size                 : 13.2 MiB (0%) Title                       : Ingles-PGS [CinemaniaHDD] Language                    : English Default                     : No Forced                      : No Text #3 ID                          : 7 Format                      : UTF-8 Codec ID                    : S_TEXT/UTF8 Codec ID/Info               : UTF-8 Plain Text Duration                    : 44 min 47 s Bit rate                    : 0 b/s Count of elements           : 3 Stream size                 : 104 Bytes (0%) Title                       : Forzados-SRT [CinemaniaHDD] Language                    : Spanish Default                     : Yes Forced                      : Yes Text #4 ID                          : 8 Format                      : UTF-8 Codec ID                    : S_TEXT/UTF8 Codec ID/Info               : UTF-8 Plain Text Duration                    : 1 h 47 min Bit rate                    : 24 b/s Count of elements           : 620 Stream size                 : 19.7 KiB (0%) Title                       : Español-SRT [CinemaniaHDD] Language                    : Spanish Default                     : No Forced                      : No Menu 00:00:00.000                : 00:00:00.000 00:04:27.559                : 00:04:27.559 00:11:12.088                : 00:11:12.088 00:16:27.820                : 00:16:27.820 00:20:11.836                : 00:20:11.836 00:26:52.319                : 00:26:52.319 00:31:02.944                : 00:31:02.944 00:36:10.627                : 00:36:10.627 00:43:36.614                : 00:43:36.614 00:50:14.511                : 00:50:14.511 00:54:59.421                : 00:54:59.421 00:59:54.049                : 00:59:54.049 01:09:57.735                : 01:09:57.735 01:13:59.018                : 01:13:59.018 01:19:12.247                : 01:19:12.247 01:24:17.386                : 01:24:17.386 01:33:00.825                : 01:33:00.825 01:38:55.555                : 01:38:55.555 01:44:41.609                : 01:44:41.609 01:48:38.303                : 01:48:38.303
  • Peso: 31.2 GiB

Sinopsis

Descargar 47 Ronin: La Leyenda del Samurai (2013) REMUX 1080p Latino. La película es una adaptación de la famosa «Leyenda de los 47 ronin», que ya ha sido adaptada a la pantalla en varias ocasiones y que es considerada en Japón como una leyenda nacional, y pone de manifiesto el código de honor samurái por excelencia: el Bushido. Nos encontramos en el siglo XVII, en el Japón feudal. Kai (Keanu Reeves, ‘The Matrix’) es un paria que se une al líder de los 47 Ronin, 47 guerreros sin amo que tuvieron que convertirse en outsiders después de que su señor fuera obligado a cometer sepukku (suicidio al estilo samurái), Oishi (Hiroyuki Sanada, ‘El ocaso del samurái’). Juntos lucharán por vengarse del traidor que mató a su señor y les condenó al destierro. Para restablecer el honor a su tierra natal, los guerreros se lanzan a una búsqueda plagada de duras pruebas capaces de destruir a cualquiera.

Audio Español Latino DTS 5.1 Bluray + EAC3 5.1 NF – Ingles DTS-HD 5.1 Bluray
RESUBIDO

Ficha técnica

Video trailer de la película

Enlaces de descarga

Rip de Bluray

Descargar 47 Ronin: La Leyenda del Samurai (2013) REMUX 1080p Latino




Aportes de DPeliculasHDmega la pass es:dpeliculashdmega.org Aportes de CinemaniaHD la pass es:cinemaniahdd.com Aportes recientes:cinemaniahdd.net
Guardado en : Acción , Aventura , Drama , Fantasía , Remux

Películas relacionadas

  • Viviendo con mi ex (2006) REMUX 1080p Latino-CMHDD

    Viviendo con mi ex (2006) REMUX 1080p Latino-CMHDD

    2006
    Viviendo con mi ex (2006) REMUX 1080p Latino-CMHDD

    1h 46m 2006

    Descargar Viviendo con mi ex (2006) REMUX 1080p Latino-CMHDD. Relato sobre las consecuencias de una ruptura...

    Director: Todd Amateau

    Género: Comedia

    Actores: William Dick

  • The Lego Movie (2014) REMUX 4K HDR Latino – CMHDD

    The Lego Movie (2014) REMUX 4K HDR Latino – CMHDD

    2014
    The Lego Movie (2014) REMUX 4K HDR Latino – CMHDD

    1h 40m 2014

    Película basada en los clásicos juguetes LEGO. Emmet, el protagonista de la película, trabaja como...

    Director: Vernessa Cook

    Género: Animación

    Actores: Will Forte

  • The Lego Movie (2014) REMUX 1080p Latino – CMHDD

    The Lego Movie (2014) REMUX 1080p Latino – CMHDD

    2014
    The Lego Movie (2014) REMUX 1080p Latino – CMHDD

    1h 40m 2014

    Película basada en los clásicos juguetes LEGO. Emmet, el protagonista de la película, trabaja como...

    Director: Vernessa Cook

    Género: Animación

    Actores: Will Forte

descargar 47 Ronin: La Leyenda del Samurai (2013) REMUX 1080p Latino Full 1080p 1080p gratis, 47 Ronin: La Leyenda del Samurai (2013) REMUX 1080p Latino Full 1080p mega 1 link, 47 Ronin: La Leyenda del Samurai (2013) REMUX 1080p Latino Full 1080p pelicula completa, descargar 47 Ronin: La Leyenda del Samurai (2013) REMUX 1080p Latino Full 1080p gratis en mega.

47 Ronin: La Leyenda del Samurai (2013) REMUX 1080p Latino pelicula full hd, 47 Ronin: La Leyenda del Samurai (2013) REMUX 1080p Latino mega latino, 47 Ronin: La Leyenda del Samurai (2013) REMUX 1080p Latino 4k latino, 47 Ronin: La Leyenda del Samurai (2013) REMUX 1080p Latino pelicula completa, 47 Ronin: La Leyenda del Samurai (2013) REMUX 1080p Latino descargar gratis, descargar 47 Ronin: La Leyenda del Samurai (2013) REMUX 1080p Latino pelicula latino, 47 Ronin: La Leyenda del Samurai (2013) REMUX 1080p Latino 1 link mega, 47 Ronin: La Leyenda del Samurai (2013) REMUX 1080p Latino 1 link google drive, 47 Ronin: La Leyenda del Samurai (2013) REMUX 1080p Latino hd 1080p latino.
Comentarios 0