×

¿Problemas para descargar con Mozilla, EDGE? Deshabilita la opción "Abrir vinculos en una pestaña nueva" tal como lo muestra ésta imagen.

47 Ronin: La Leyenda del Samurai (2013) 1080p Latino

361 vistas

Información de 47 Ronin: La Leyenda del Samurai (2013) 1080p Latino

Datos de la película

  • Calidad: 1080p
  • Audio: Español Latino AC3 5.1 BLURAY - Ingles AC3 5.1 BLURAY
  • Subtitulos: Español Latino SRT - Ingles SRT
  • Resolución: 1920x800p
  • Formato: MKV
  • Codec: H.264
  • Encoder: CinefiloCool
  • Mediainfo: Clic para Mostrar Datos Ver
  • 47 Ronin (2013) 1080p Latino-CMHDD.mkv
    Format                      : Matroska
    Format version              : Version 4
    File size                   : 3.81 GiB
    Duration                    : 1 h 58 min
    Overall bit rate            : 4 590 kb/s
    Movie name                  : 47 Ronin (2013) CinemaniaHDD.Net
    Encoded date                : UTC 2020-05-07 20:54:26
    Writing application         : mkvmerge v46.0.0 ('No Deeper Escape') 64-bit
    Writing library             : libebml v1.3.10 + libmatroska v1.5.2
    Attachments                 : CINEMANIAHD.png

    Video
    ID                          : 1
    Format                      : AVC
    Format/Info                 : Advanced Video Codec
    Format profile              : High@L4.1
    Format settings             : CABAC / 5 Ref Frames
    Format settings, CABAC      : Yes
    Format settings, Reference  : 5 frames
    Codec ID                    : V_MPEG4/ISO/AVC
    Duration                    : 1 h 58 min
    Bit rate                    : 3 500 kb/s
    Width                       : 1 920 pixels
    Height                      : 800 pixels
    Display aspect ratio        : 2.40:1
    Frame rate mode             : Constant
    Frame rate                  : 23.976 (24000/1001) FPS
    Color space                 : YUV
    Chroma subsampling          : 4:2:0
    Bit depth                   : 8 bits
    Scan type                   : Progressive
    Bits/(Pixel*Frame)          : 0.095
    Stream size                 : 2.90 GiB (76%)
    Title                       : HD1080p [CinemaniaHDD]
    Writing library             : x264 core 157 r2935 545de2f
    Encoding settings           : cabac=1 / ref=5 / deblock=1:-2:-2 / analyse=0x3:0x133 / me=umh / subme=9 / psy=1 / psy_rd=1.00:0.25 / mixed_ref=1 / me_range=16 / chroma_me=1 / trellis=2 / 8x8dct=1 / cqm=0 / deadzone=6,6 / fast_pskip=1 / chroma_qp_offset=-4 / threads=24 / lookahead_threads=2 / sliced_threads=0 / nr=0 / decimate=0 / interlaced=0 / bluray_compat=0 / constrained_intra=0 / bframes=3 / b_pyramid=2 / b_adapt=2 / b_bias=0 / direct=3 / weightb=1 / open_gop=0 / weightp=2 / keyint=240 / keyint_min=24 / scenecut=40 / intra_refresh=0 / rc_lookahead=60 / rc=2pass / mbtree=1 / bitrate=3500 / ratetol=1.0 / qcomp=0.80 / qpmin=0 / qpmax=69 / qpstep=4 / cplxblur=20.0 / qblur=0.5 / vbv_maxrate=62500 / vbv_bufsize=78125 / nal_hrd=none / filler=0 / ip_ratio=1.10 / aq=1:0.50
    Default                     : Yes
    Forced                      : No
    Color range                 : Limited
    Color primaries             : BT.709
    Transfer characteristics    : BT.709
    Matrix coefficients         : BT.709

    Audio #1
    ID                          : 2
    Format                      : AC-3
    Format/Info                 : Audio Coding 3
    Commercial name             : Dolby Digital
    Codec ID                    : A_AC3
    Duration                    : 1 h 58 min
    Bit rate mode               : Constant
    Bit rate                    : 640 kb/s
    Channel(s)                  : 6 channels
    Channel layout              : L R C LFE Ls Rs
    Sampling rate               : 48.0 kHz
    Frame rate                  : 31.250 FPS (1536 SPF)
    Compression mode            : Lossy
    Delay relative to video     : -5 ms
    Stream size                 : 543 MiB (14%)
    Title                       : Español Latino [CinemaniaHDD]
    Language                    : Spanish
    Service kind                : Complete Main
    Default                     : Yes
    Forced                      : No

    Audio #2
    ID                          : 3
    Format                      : AC-3
    Format/Info                 : Audio Coding 3
    Commercial name             : Dolby Digital
    Codec ID                    : A_AC3
    Duration                    : 1 h 58 min
    Bit rate mode               : Constant
    Bit rate                    : 448 kb/s
    Channel(s)                  : 6 channels
    Channel layout              : L R C LFE Ls Rs
    Sampling rate               : 48.0 kHz
    Frame rate                  : 31.250 FPS (1536 SPF)
    Compression mode            : Lossy
    Delay relative to video     : -5 ms
    Stream size                 : 380 MiB (10%)
    Title                       : Ingles [CinemaniaHDD]
    Language                    : English
    Service kind                : Complete Main
    Default                     : No
    Forced                      : No

    Text #1
    ID                          : 4
    Format                      : UTF-8
    Codec ID                    : S_TEXT/UTF8
    Codec ID/Info               : UTF-8 Plain Text
    Duration                    : 1 h 47 min
    Bit rate                    : 0 b/s
    Count of elements           : 7
    Stream size                 : 355 Bytes (0%)
    Title                       : Forzados-SRT [CinemaniaHDD]
    Language                    : Spanish
    Default                     : Yes
    Forced                      : No

    Text #2
    ID                          : 5
    Format                      : UTF-8
    Codec ID                    : S_TEXT/UTF8
    Codec ID/Info               : UTF-8 Plain Text
    Duration                    : 1 h 47 min
    Bit rate                    : 25 b/s
    Count of elements           : 691
    Stream size                 : 20.1 KiB (0%)
    Title                       : Español-SRT [CinemaniaHDD]
    Language                    : Spanish
    Default                     : No
    Forced                      : No

    Text #3
    ID                          : 6
    Format                      : UTF-8
    Codec ID                    : S_TEXT/UTF8
    Codec ID/Info               : UTF-8 Plain Text
    Duration                    : 1 h 47 min
    Bit rate                    : 23 b/s
    Count of elements           : 680
    Stream size                 : 18.5 KiB (0%)
    Title                       : Ingles-SRT [CinemaniaHDD]
    Language                    : English
    Default                     : No
    Forced                      : No

    Menu
    00:00:00.000                : en:Chapter 01
    00:04:27.558                : en:Chapter 02
    00:11:12.088                : en:Chapter 03
    00:16:27.820                : en:Chapter 04
    00:20:11.835                : en:Chapter 05
    00:26:52.319                : en:Chapter 06
    00:31:02.944                : en:Chapter 07
    00:36:10.626                : en:Chapter 08
    00:43:36.614                : en:Chapter 09
    00:50:14.511                : en:Chapter 10
    00:54:59.421                : en:Chapter 11
    00:59:54.048                : en:Chapter 12
    01:09:57.735                : en:Chapter 13
    01:13:59.017                : en:Chapter 14
    01:19:12.247                : en:Chapter 15
    01:24:17.385                : en:Chapter 16
    01:33:00.825                : en:Chapter 17
    01:38:55.554                : en:Chapter 18
    01:44:41.608                : en:Chapter 19
    01:48:38.303                : en:Chapter 20

  • Peso: 3.81 GiB

Sinopsis

Descargar 47 Ronin: La Leyenda del Samurai (2013) 1080p Latino. La película es una adaptación de la famosa «Leyenda de los 47 ronin», que ya ha sido adaptada a la pantalla en varias ocasiones y que es considerada en Japón como una leyenda nacional, y pone de manifiesto el código de honor samurái por excelencia: el Bushido. Nos encontramos en el siglo XVII, en el Japón feudal. Kai (Keanu Reeves, ‘The Matrix’) es un paria que se une al líder de los 47 Ronin, 47 guerreros sin amo que tuvieron que convertirse en outsiders después de que su señor fuera obligado a cometer sepukku (suicidio al estilo samurái), Oishi (Hiroyuki Sanada, ‘El ocaso del samurái’). Juntos lucharán por vengarse del traidor que mató a su señor y les condenó al destierro. Para restablecer el honor a su tierra natal, los guerreros se lanzan a una búsqueda plagada de duras pruebas capaces de destruir a cualquiera.

Ficha técnica

Video trailer de la película

Enlaces de descarga

Rip de Bluray

Descargar 47 Ronin: La Leyenda del Samurai (2013) 1080p Latino




Aportes de DPeliculasHDmega la pass es:dpeliculashdmega.org Aportes de CinemaniaHD la pass es:cinemaniahdd.com
Guardado en : Acción , Aventura , Drama , Fantasía , HD 1080p

Películas relacionadas

  • Blonde (2022) NF WEB-DL 1080p Latino

    Blonde (2022) NF WEB-DL 1080p Latino

    2022
    Blonde (2022) NF WEB-DL 1080p Latino

    2h 46m 2022

    Descargar Blonde (2022) NF WEB-DL 1080p Latino. Basada en el bestseller de la cinco veces finalista al...

    Director: Kristin Bree Calabrese

    Género: Drama

    Actores: Xavier Samuel

  • Borrego: Sal Del Camino (2022) HD 1080p Latino

    Borrego: Sal Del Camino (2022) HD 1080p Latino

    2022
    Borrego: Sal Del Camino (2022) HD 1080p Latino

    1h 42m 2022

    Descargar Borrego: Sal Del Camino (2022) HD 1080p Latino. Una joven botánica se traslada a un pequeño...

    Director: Jesse Harris

    Género: Crimen

    Actores: Olivia Trujillo

  • Tren Bala (2022) WEB-DL 4K UHD HDR Latino

    Tren Bala (2022) WEB-DL 4K UHD HDR Latino

    2022
    Tren Bala (2022) WEB-DL 4K UHD HDR Latino

    2h 7m 2022

    Descargar Tren Bala (2022) WEB-DL 4K UHD HDR Latino. El desafortunado asesino "Catarina" está decidido...

    Director: Paul Barry

    Género: 4K HDR

    Actores: Zooey Miyoshi

  • Tren Bala (2022) AMZN WEB-DL 1080p Latino

    Tren Bala (2022) AMZN WEB-DL 1080p Latino

    2022
    Tren Bala (2022) AMZN WEB-DL 1080p Latino

    2h 7m 2022

    Descargar Tren Bala (2022) AMZN WEB-DL 1080p Latino. Cinco asesinos a sueldo se encuentran a bordo de...

    Director: Paul Barry

    Género: Acción

    Actores: Zooey Miyoshi

  • Infiniti (2022) Primera Temporada WEB-DL 1080p Latino

    Infiniti (2022) Primera Temporada WEB-DL 1080p Latino

    2022
    Infiniti (2022) Primera Temporada WEB-DL 1080p Latino

    0h 52m 2022

    La ISS, la Estación Espacial Internacional se ha quedado en silencio. La tripulación está en peligro....

    Director: Stéphane Pannetier

    Género: Drama

    Actores: Vlad Ivanov

descargar 47 Ronin: La Leyenda del Samurai (2013) 1080p Latino 1080p 1080p gratis, 47 Ronin: La Leyenda del Samurai (2013) 1080p Latino 1080p mega 1 link, 47 Ronin: La Leyenda del Samurai (2013) 1080p Latino 1080p pelicula completa, descargar 47 Ronin: La Leyenda del Samurai (2013) 1080p Latino 1080p gratis en mega.

47 Ronin: La Leyenda del Samurai (2013) 1080p Latino pelicula full hd, 47 Ronin: La Leyenda del Samurai (2013) 1080p Latino mega latino, 47 Ronin: La Leyenda del Samurai (2013) 1080p Latino 4k latino, 47 Ronin: La Leyenda del Samurai (2013) 1080p Latino pelicula completa, 47 Ronin: La Leyenda del Samurai (2013) 1080p Latino descargar gratis, descargar 47 Ronin: La Leyenda del Samurai (2013) 1080p Latino pelicula latino, 47 Ronin: La Leyenda del Samurai (2013) 1080p Latino 1 link mega, 47 Ronin: La Leyenda del Samurai (2013) 1080p Latino 1 link google drive, 47 Ronin: La Leyenda del Samurai (2013) 1080p Latino hd 1080p latino.
Comentarios 0