×

¿Problemas para descargar con Mozilla, EDGE? Deshabilita la opción "Abrir vinculos en una pestaña nueva" tal como lo muestra ésta imagen.

47 Ronin: La Leyenda del Samurai (2013) Full HD 1080p Latino

1.050 vistas

Información de 47 Ronin: La Leyenda del Samurai (2013) Full HD 1080p Latino

Datos de la película

  • Calidad: Full 1080p
  • Audio: Español Latino DTS 5.1 BLURAY - Ingles DTS 5.1 BLURAY
  • Subtitulos: Español Latino PGS - Ingles PGS
  • Resolución: 1920x1080p
  • Formato: MKV
  • Codec: H.264
  • Encoder: CinefiloCool
  • Mediainfo: Clic para Mostrar Datos Ver
  • 47 Ronin (2013) Full HD 1080p Latino-CMHDD.mkv Format                      : Matroska Format version              : Version 4 File size                   : 6.76 GiB Duration                    : 1 h 58 min Overall bit rate            : 8 155 kb/s Movie name                  : 47 Ronin (2013) CinemaniaHDD.Net Encoded date                : UTC 2023-01-30 02:58:05 Writing application         : mkvmerge v56.1.0 ('My Friend') 64-bit Writing library             : libebml v1.4.2 + libmatroska v1.6.4 Attachments                 : CINEMANIAHD.png Video ID                          : 1 Format                      : AVC Format/Info                 : Advanced Video Codec Format profile              : High@L4.1 Format settings             : CABAC / 4 Ref Frames Format settings, CABAC      : Yes Format settings, Reference  : 4 frames Codec ID                    : V_MPEG4/ISO/AVC Duration                    : 1 h 58 min Bit rate                    : 5 226 kb/s Width                       : 1 920 pixels Height                      : 1 080 pixels Display aspect ratio        : 16:9 Frame rate mode             : Constant Frame rate                  : 23.976 (24000/1001) FPS Color space                 : YUV Chroma subsampling          : 4:2:0 Bit depth                   : 8 bits Scan type                   : Progressive Bits/(Pixel*Frame)          : 0.105 Stream size                 : 4.33 GiB (64%) Title                       : Full HD1080p [CinemaniaHDD] Writing library             : x264 core 163 r3059 b684ebe0 Encoding settings           : cabac=1 / ref=4 / deblock=1:-1:-1 / analyse=0x3:0x133 / me=tesa / subme=11 / psy=1 / psy_rd=1.00:0.15 / mixed_ref=1 / me_range=24 / chroma_me=1 / trellis=2 / 8x8dct=1 / cqm=0 / deadzone=21,11 / fast_pskip=0 / chroma_qp_offset=-3 / threads=24 / lookahead_threads=6 / sliced_threads=0 / nr=0 / decimate=1 / interlaced=0 / bluray_compat=0 / constrained_intra=0 / bframes=16 / b_pyramid=2 / b_adapt=2 / b_bias=0 / direct=3 / weightb=1 / open_gop=0 / weightp=2 / keyint=240 / keyint_min=24 / scenecut=40 / intra_refresh=0 / rc_lookahead=60 / rc=crf / mbtree=1 / crf=20.0 / qcomp=0.60 / qpmin=0 / qpmax=69 / qpstep=4 / vbv_maxrate=62500 / vbv_bufsize=78125 / crf_max=0.0 / nal_hrd=none / filler=0 / ip_ratio=1.40 / aq=1:1.00 Default                     : Yes Forced                      : Yes Color range                 : Limited Color primaries             : BT.709 Transfer characteristics    : BT.709 Matrix coefficients         : BT.709 Audio #1 ID                          : 2 Format                      : E-AC-3 Format/Info                 : Enhanced AC-3 Commercial name             : Dolby Digital Plus Codec ID                    : A_EAC3 Duration                    : 1 h 58 min Bit rate mode               : Constant Bit rate                    : 640 kb/s Channel(s)                  : 6 channels Channel layout              : L R C LFE Ls Rs Sampling rate               : 48.0 kHz Frame rate                  : 31.250 FPS (1536 SPF) Compression mode            : Lossy Delay relative to video     : 1 s 978 ms Stream size                 : 543 MiB (8%) Title                       : Español Latino EAC3 [CinemaniaHDD] Language                    : Spanish Service kind                : Complete Main Default                     : No Forced                      : Yes Audio #2 ID                          : 3 Format                      : DTS Format/Info                 : Digital Theater Systems Codec ID                    : A_DTS Duration                    : 1 h 58 min Bit rate mode               : Constant Bit rate                    : 768 kb/s Channel(s)                  : 6 channels Channel layout              : C L R Ls Rs LFE Sampling rate               : 48.0 kHz Frame rate                  : 93.750 FPS (512 SPF) Bit depth                   : 24 bits Compression mode            : Lossy Stream size                 : 652 MiB (9%) Title                       : Español Latino DTS [CinemaniaHDD] Language                    : Spanish Default                     : Yes Forced                      : Yes Audio #3 ID                          : 4 Format                      : DTS Format/Info                 : Digital Theater Systems Codec ID                    : A_DTS Duration                    : 1 h 58 min Bit rate mode               : Constant Bit rate                    : 1 509 kb/s Channel(s)                  : 6 channels Channel layout              : C L R Ls Rs LFE Sampling rate               : 48.0 kHz Frame rate                  : 93.750 FPS (512 SPF) Bit depth                   : 24 bits Compression mode            : Lossy Stream size                 : 1.25 GiB (19%) Title                       : Ingles [CinemaniaHDD] Language                    : English Default                     : No Forced                      : No Text #1 ID                          : 5 Format                      : PGS Muxing mode                 : zlib Codec ID                    : S_HDMV/PGS Codec ID/Info               : Picture based subtitle format used on BDs/HD-DVDs Duration                    : 1 h 47 min Bit rate                    : 15.6 kb/s Count of elements           : 1384 Stream size                 : 12.0 MiB (0%) Title                       : Español-PGS [CinemaniaHDD] Language                    : Spanish Default                     : No Forced                      : No Text #2 ID                          : 6 Format                      : PGS Muxing mode                 : zlib Codec ID                    : S_HDMV/PGS Codec ID/Info               : Picture based subtitle format used on BDs/HD-DVDs Duration                    : 1 h 47 min Bit rate                    : 17.1 kb/s Count of elements           : 1484 Stream size                 : 13.2 MiB (0%) Title                       : Ingles-PGS [CinemaniaHDD] Language                    : English Default                     : No Forced                      : No Text #3 ID                          : 7 Format                      : UTF-8 Codec ID                    : S_TEXT/UTF8 Codec ID/Info               : UTF-8 Plain Text Duration                    : 44 min 47 s Bit rate                    : 0 b/s Count of elements           : 3 Stream size                 : 104 Bytes (0%) Title                       : Forzados-SRT [CinemaniaHDD] Language                    : Spanish Default                     : Yes Forced                      : Yes Text #4 ID                          : 8 Format                      : UTF-8 Codec ID                    : S_TEXT/UTF8 Codec ID/Info               : UTF-8 Plain Text Duration                    : 1 h 47 min Bit rate                    : 24 b/s Count of elements           : 620 Stream size                 : 19.7 KiB (0%) Title                       : Español-SRT [CinemaniaHDD] Language                    : Spanish Default                     : No Forced                      : No Menu 00:00:00.000                : 00:00:00.000 00:04:27.559                : 00:04:27.559 00:11:12.088                : 00:11:12.088 00:16:27.820                : 00:16:27.820 00:20:11.836                : 00:20:11.836 00:26:52.319                : 00:26:52.319 00:31:02.944                : 00:31:02.944 00:36:10.627                : 00:36:10.627 00:43:36.614                : 00:43:36.614 00:50:14.511                : 00:50:14.511 00:54:59.421                : 00:54:59.421 00:59:54.049                : 00:59:54.049 01:09:57.735                : 01:09:57.735 01:13:59.018                : 01:13:59.018 01:19:12.247                : 01:19:12.247 01:24:17.386                : 01:24:17.386 01:33:00.825                : 01:33:00.825 01:38:55.555                : 01:38:55.555 01:44:41.609                : 01:44:41.609 01:48:38.303                : 01:48:38.303
  • Peso: 6.76 GiB

Sinopsis

Descargar 47 Ronin: La Leyenda del Samurai (2013) Full HD 1080p Latino. La película es una adaptación de la famosa «Leyenda de los 47 ronin», que ya ha sido adaptada a la pantalla en varias ocasiones y que es considerada en Japón como una leyenda nacional, y pone de manifiesto el código de honor samurái por excelencia: el Bushido. Nos encontramos en el siglo XVII, en el Japón feudal. Kai (Keanu Reeves, ‘The Matrix’) es un paria que se une al líder de los 47 Ronin, 47 guerreros sin amo que tuvieron que convertirse en outsiders después de que su señor fuera obligado a cometer sepukku (suicidio al estilo samurái), Oishi (Hiroyuki Sanada, ‘El ocaso del samurái’). Juntos lucharán por vengarse del traidor que mató a su señor y les condenó al destierro. Para restablecer el honor a su tierra natal, los guerreros se lanzan a una búsqueda plagada de duras pruebas capaces de destruir a cualquiera.

Audio Español Latino DTS 5.1 Bluray + EAC3 5.1 NF – Ingles DTS 5.1 Bluray
RESUBIDO

Ficha técnica

Video trailer de la película

Enlaces de descarga

Rip de Bluray

Descargar 47 Ronin: La Leyenda del Samurai (2013) Full HD 1080p Latino




Aportes de DPeliculasHDmega la pass es:dpeliculashdmega.org Aportes de CinemaniaHD la pass es:cinemaniahdd.com Aportes recientes:cinemaniahdd.net

Películas relacionadas

descargar 47 Ronin: La Leyenda del Samurai (2013) Full HD 1080p Latino Full 1080p 1080p gratis, 47 Ronin: La Leyenda del Samurai (2013) Full HD 1080p Latino Full 1080p mega 1 link, 47 Ronin: La Leyenda del Samurai (2013) Full HD 1080p Latino Full 1080p pelicula completa, descargar 47 Ronin: La Leyenda del Samurai (2013) Full HD 1080p Latino Full 1080p gratis en mega.

47 Ronin: La Leyenda del Samurai (2013) Full HD 1080p Latino pelicula full hd, 47 Ronin: La Leyenda del Samurai (2013) Full HD 1080p Latino mega latino, 47 Ronin: La Leyenda del Samurai (2013) Full HD 1080p Latino 4k latino, 47 Ronin: La Leyenda del Samurai (2013) Full HD 1080p Latino pelicula completa, 47 Ronin: La Leyenda del Samurai (2013) Full HD 1080p Latino descargar gratis, descargar 47 Ronin: La Leyenda del Samurai (2013) Full HD 1080p Latino pelicula latino, 47 Ronin: La Leyenda del Samurai (2013) Full HD 1080p Latino 1 link mega, 47 Ronin: La Leyenda del Samurai (2013) Full HD 1080p Latino 1 link google drive, 47 Ronin: La Leyenda del Samurai (2013) Full HD 1080p Latino hd 1080p latino.
Comentarios 0