×

¿Problemas para descargar con Mozilla, EDGE? Deshabilita la opción "Abrir vinculos en una pestaña nueva" tal como lo muestra ésta imagen.

47 Ronin: La Leyenda del Samurai (2013) 4K UHD HDR Latino

631 vistas

Información de 47 Ronin: La Leyenda del Samurai (2013) 4K UHD HDR Latino

Datos de la película

  • Calidad: 4K HDR
  • Audio: Español Latino DTS 5.1 BLURAY - Ingles DTS 5.1 BLURAY
  • Subtitulos: Español Latino PGS - Ingles PGS
  • Resolución: 3840x1600p
  • Formato: MKV
  • Codec: HEVC
  • Encoder: CinefiloCool
  • Mediainfo: Clic para Mostrar Datos Ver
  • 47 Ronin (2013) UHD HDR Latino-CMHDD.mkv
    Format                      : Matroska
    Format version              : Version 4
    File size                   : 17.7 GiB
    Duration                    : 1 h 58 min
    Overall bit rate            : 21.3 Mb/s
    Movie name                  : 47 Ronin (2013) CinemaniaHDD.Net
    Encoded date                : UTC 2020-05-07 21:13:13
    Writing application         : mkvmerge v46.0.0 ('No Deeper Escape') 64-bit
    Writing library             : libebml v1.3.10 + libmatroska v1.5.2
    Attachments                 : CINEMANIAHD.png

    Video
    ID                          : 1
    Format                      : HEVC
    Format/Info                 : High Efficiency Video Coding
    Format profile              : Main 10@L5.1@High
    HDR format                  : SMPTE ST 2086, HDR10 compatible
    Codec ID                    : V_MPEGH/ISO/HEVC
    Duration                    : 1 h 58 min
    Bit rate                    : 19.0 Mb/s
    Width                       : 3 840 pixels
    Height                      : 1 600 pixels
    Display aspect ratio        : 2.40:1
    Frame rate mode             : Constant
    Frame rate                  : 23.976 (24000/1001) FPS
    Color space                 : YUV
    Chroma subsampling          : 4:2:0 (Type 2)
    Bit depth                   : 10 bits
    Bits/(Pixel*Frame)          : 0.129
    Stream size                 : 15.8 GiB (89%)
    Title                       : 2160p HDR [Bluray]
    Writing library             : x265 3.3+21-6bb2d88029c2:[Windows][GCC 10.0.1][64 bit] 10bit
    Encoding settings           : cpuid=1111039 / frame-threads=5 / numa-pools=36 / wpp / no-pmode / no-pme / no-psnr / no-ssim / log-level=2 / input-csp=1 / input-res=3840x1600 / interlace=0 / total-frames=170631 / level-idc=51 / high-tier=1 / uhd-bd=0 / ref=4 / no-allow-non-conformance / repeat-headers / annexb / aud / hrd / info / hash=0 / no-temporal-layers / no-open-gop / min-keyint=23 / keyint=250 / gop-lookahead=0 / bframes=4 / b-adapt=2 / b-pyramid / bframe-bias=0 / rc-lookahead=25 / lookahead-slices=4 / scenecut=40 / hist-scenecut=0 / radl=0 / no-splice / no-intra-refresh / ctu=64 / min-cu-size=8 / rect / no-amp / max-tu-size=32 / tu-inter-depth=1 / tu-intra-depth=1 / limit-tu=0 / rdoq-level=2 / dynamic-rd=0.00 / no-ssim-rd / signhide / no-tskip / nr-intra=0 / nr-inter=0 / no-constrained-intra / strong-intra-smoothing / max-merge=3 / limit-refs=3 / limit-modes / me=3 / subme=3 / merange=57 / temporal-mvp / no-frame-dup / no-hme / weightp / no-weightb / no-analyze-src-pics / deblock=-3:-3 / no-sao / no-sao-non-deblock / rd=4 / selective-sao=0 / no-early-skip / rskip / no-fast-intra / no-tskip-fast / no-cu-lossless / no-b-intra / no-splitrd-skip / rdpenalty=0 / psy-rd=2.00 / psy-rdoq=1.00 / no-rd-refine / no-lossless / cbqpoffs=0 / crqpoffs=0 / rc=crf / crf=14.0 / qcomp=0.60 / qpstep=4 / stats-write=0 / stats-read=0 / vbv-maxrate=160000 / vbv-bufsize=160000 / vbv-init=0.9 / crf-max=0.0 / crf-min=0.0 / ipratio=1.40 / pbratio=1.30 / aq-mode=2 / aq-strength=1.00 / cutree / zone-count=0 / no-strict-cbr / qg-size=32 / no-rc-grain / qpmax=69 / qpmin=0 / no-const-vbv / sar=1 / overscan=0 / videoformat=5 / range=0 / colorprim=9 / transfer=16 / colormatrix=9 / chromaloc=1 / chromaloc-top=2 / chromaloc-bottom=2 / display-window=0 / master-display=G(13250,34500)B(7500,3000)R(34000,16000)WP(15635,16450)L(10000000,50) / cll=728,279 / min-luma=0 / max-luma=1023 / log2-max-poc-lsb=8 / vui-timing-info / vui-hrd-info / slices=1 / no-opt-qp-pps / no-opt-ref-list-length-pps / no-multi-pass-opt-rps / scenecut-bias=0.05 / hist-threshold=0.01 / no-opt-cu-delta-qp / no-aq-motion / hdr10 / hdr10-opt / no-dhdr10-opt / no-idr-recovery-sei / analysis-reuse-level=0 / analysis-save-reuse-level=0 / analysis-load-reuse-level=0 / scale-factor=0 / refine-intra=0 / refine-inter=0 / refine-mv=1 / refine-ctu-distortion=0 / no-limit-sao / ctu-info=0 / no-lowpass-dct / refine-analysis-type=0 / copy-pic=1 / max-ausize-factor=1.0 / no-dynamic-refine / no-single-sei / no-hevc-aq / no-svt / no-field / qp-adaptation-range=1.00 / no-scenecut-aware-qpconformance-window-offsets / right=0 / bottom=0 / decoder-max-rate=0
    Default                     : Yes
    Forced                      : No
    Color range                 : Limited
    Color primaries             : BT.2020
    Transfer characteristics    : PQ
    Matrix coefficients         : BT.2020 non-constant
    Mastering display color pri : Display P3
    Mastering display luminance : min: 0.0050 cd/m2, max: 1000 cd/m2
    Maximum Content Light Level : 728 cd/m2
    Maximum Frame-Average Light : 279 cd/m2

    Audio #1
    ID                          : 2
    Format                      : DTS
    Format/Info                 : Digital Theater Systems
    Codec ID                    : A_DTS
    Duration                    : 1 h 58 min
    Bit rate mode               : Constant
    Bit rate                    : 768 kb/s
    Channel(s)                  : 6 channels
    Channel layout              : C L R Ls Rs LFE
    Sampling rate               : 48.0 kHz
    Frame rate                  : 93.750 FPS (512 SPF)
    Bit depth                   : 24 bits
    Compression mode            : Lossy
    Stream size                 : 652 MiB (4%)
    Title                       : Español Latino [CinemaniaHDD]
    Language                    : Spanish
    Default                     : Yes
    Forced                      : No

    Audio #2
    ID                          : 3
    Format                      : DTS
    Format/Info                 : Digital Theater Systems
    Codec ID                    : A_DTS
    Duration                    : 1 h 58 min
    Bit rate mode               : Constant
    Bit rate                    : 1 509 kb/s
    Channel(s)                  : 6 channels
    Channel layout              : C L R Ls Rs LFE
    Sampling rate               : 48.0 kHz
    Frame rate                  : 93.750 FPS (512 SPF)
    Bit depth                   : 24 bits
    Compression mode            : Lossy
    Stream size                 : 1.25 GiB (7%)
    Title                       : Ingles [CinemaniaHDD]
    Language                    : English
    Default                     : No
    Forced                      : No

    Text #1
    ID                          : 4
    Format                      : PGS
    Muxing mode                 : zlib
    Codec ID                    : S_HDMV/PGS
    Codec ID/Info               : Picture based subtitle format used on BDs/HD-DVDs
    Duration                    : 1 h 38 min
    Bit rate                    : 245 b/s
    Count of elements           : 12
    Stream size                 : 176 KiB (0%)
    Title                       : Sub_Forzados [PGS]
    Language                    : Spanish
    Default                     : Yes
    Forced                      : No

    Text #2
    ID                          : 5
    Format                      : PGS
    Muxing mode                 : zlib
    Codec ID                    : S_HDMV/PGS
    Codec ID/Info               : Picture based subtitle format used on BDs/HD-DVDs
    Duration                    : 1 h 47 min
    Bit rate                    : 15.5 kb/s
    Count of elements           : 1384
    Stream size                 : 12.0 MiB (0%)
    Title                       : Sub_Esp [PGS]
    Language                    : Spanish
    Default                     : No
    Forced                      : No

    Text #3
    ID                          : 6
    Format                      : PGS
    Muxing mode                 : zlib
    Codec ID                    : S_HDMV/PGS
    Codec ID/Info               : Picture based subtitle format used on BDs/HD-DVDs
    Duration                    : 1 h 47 min
    Bit rate                    : 16.8 kb/s
    Count of elements           : 1484
    Stream size                 : 13.0 MiB (0%)
    Title                       : Sub_Eng [PGS]
    Language                    : English
    Default                     : No
    Forced                      : No

    Text #4
    ID                          : 7
    Format                      : UTF-8
    Codec ID                    : S_TEXT/UTF8
    Codec ID/Info               : UTF-8 Plain Text
    Duration                    : 1 h 47 min
    Bit rate                    : 0 b/s
    Count of elements           : 7
    Stream size                 : 355 Bytes (0%)
    Title                       : Sub_Forzados
    Language                    : Spanish
    Default                     : No
    Forced                      : No

    Text #5
    ID                          : 8
    Format                      : UTF-8
    Codec ID                    : S_TEXT/UTF8
    Codec ID/Info               : UTF-8 Plain Text
    Duration                    : 1 h 47 min
    Bit rate                    : 25 b/s
    Count of elements           : 691
    Stream size                 : 20.1 KiB (0%)
    Title                       : Sub_Esp
    Language                    : Spanish
    Default                     : No
    Forced                      : No

    Menu
    00:00:00.000                : en:Chapter 01
    00:04:27.559                : en:Chapter 02
    00:11:12.088                : en:Chapter 03
    00:16:27.820                : en:Chapter 04
    00:20:11.836                : en:Chapter 05
    00:26:52.319                : en:Chapter 06
    00:31:02.944                : en:Chapter 07
    00:36:10.627                : en:Chapter 08
    00:43:36.614                : en:Chapter 09
    00:50:14.511                : en:Chapter 10
    00:54:59.421                : en:Chapter 11
    00:59:54.049                : en:Chapter 12
    01:09:57.735                : en:Chapter 13
    01:13:59.018                : en:Chapter 14
    01:19:12.247                : en:Chapter 15
    01:24:17.386                : en:Chapter 16
    01:33:00.825                : en:Chapter 17
    01:38:55.555                : en:Chapter 18
    01:44:41.609                : en:Chapter 19
    01:48:38.303                : en:Chapter 20

  • Peso: 17.7 GiB

Sinopsis

Descargar 47 Ronin: La Leyenda del Samurai (2013) 4K UHD HDR Latino. La película es una adaptación de la famosa «Leyenda de los 47 ronin», que ya ha sido adaptada a la pantalla en varias ocasiones y que es considerada en Japón como una leyenda nacional, y pone de manifiesto el código de honor samurái por excelencia: el Bushido. Nos encontramos en el siglo XVII, en el Japón feudal. Kai (Keanu Reeves, ‘The Matrix’) es un paria que se une al líder de los 47 Ronin, 47 guerreros sin amo que tuvieron que convertirse en outsiders después de que su señor fuera obligado a cometer sepukku (suicidio al estilo samurái), Oishi (Hiroyuki Sanada, ‘El ocaso del samurái’). Juntos lucharán por vengarse del traidor que mató a su señor y les condenó al destierro. Para restablecer el honor a su tierra natal, los guerreros se lanzan a una búsqueda plagada de duras pruebas capaces de destruir a cualquiera.

Ficha técnica

Video trailer de la película

Enlaces de descarga

Rip de Bluray

Descargar 47 Ronin: La Leyenda del Samurai (2013) 4K UHD HDR Latino




Aportes de DPeliculasHDmega la pass es:dpeliculashdmega.org Aportes de CinemaniaHD la pass es:cinemaniahdd.com
Guardado en : 4K HDR , 4K UHD , Acción , Aventura , Drama , Fantasía

Películas relacionadas

  • Paradise Highway (2022) HD 1080p Latino

    Paradise Highway (2022) HD 1080p Latino

    2022
    Paradise Highway (2022) HD 1080p Latino

    1h 55m 2022

    Descargar Paradise Highway (2022) HD 1080p Latino. Un camionero se ha visto obligado a pasar de contrabando...

    Director: Anna Gutto

    Género: Crimen

    Actores: Xavier Scott Evans

  • Paradise Highway (2022) PLACEBO Full HD 1080p Latino

    Paradise Highway (2022) PLACEBO Full HD 1080p Latino

    2022
    Paradise Highway (2022) PLACEBO Full HD 1080p Latino

    1h 55m 2022

    Descargar Paradise Highway (2022) PLACEBO Full HD 1080p Latino. Un camionero se ha visto obligado a pasar...

    Director: Anna Gutto

    Género: Crimen

    Actores: Xavier Scott Evans

  • Paradise Highway (2022) REMUX 1080p Latino

    Paradise Highway (2022) REMUX 1080p Latino

    2022
    Paradise Highway (2022) REMUX 1080p Latino

    1h 55m 2022

    Descargar Paradise Highway (2022) REMUX 1080p Latino. Un camionero se ha visto obligado a pasar de contrabando...

    Director: Anna Gutto

    Género: Crimen

    Actores: Xavier Scott Evans

  • Shotgun Wedding (2022) AMZN WEB-DL 1080p Latino

    Shotgun Wedding (2022) AMZN WEB-DL 1080p Latino

    2022
    Shotgun Wedding (2022) AMZN WEB-DL 1080p Latino

    1h 41m 2022

    Darcy y Tom reúnen a sus familias para la boda de destino definitiva, pero cuando toman como rehenes...

    Director: Jason Moore

    Género: Acción

    Actores: Steve Coulter

descargar 47 Ronin: La Leyenda del Samurai (2013) 4K UHD HDR Latino 4K HDR 1080p gratis, 47 Ronin: La Leyenda del Samurai (2013) 4K UHD HDR Latino 4K HDR mega 1 link, 47 Ronin: La Leyenda del Samurai (2013) 4K UHD HDR Latino 4K HDR pelicula completa, descargar 47 Ronin: La Leyenda del Samurai (2013) 4K UHD HDR Latino 4K HDR gratis en mega.

47 Ronin: La Leyenda del Samurai (2013) 4K UHD HDR Latino pelicula full hd, 47 Ronin: La Leyenda del Samurai (2013) 4K UHD HDR Latino mega latino, 47 Ronin: La Leyenda del Samurai (2013) 4K UHD HDR Latino 4k latino, 47 Ronin: La Leyenda del Samurai (2013) 4K UHD HDR Latino pelicula completa, 47 Ronin: La Leyenda del Samurai (2013) 4K UHD HDR Latino descargar gratis, descargar 47 Ronin: La Leyenda del Samurai (2013) 4K UHD HDR Latino pelicula latino, 47 Ronin: La Leyenda del Samurai (2013) 4K UHD HDR Latino 1 link mega, 47 Ronin: La Leyenda del Samurai (2013) 4K UHD HDR Latino 1 link google drive, 47 Ronin: La Leyenda del Samurai (2013) 4K UHD HDR Latino hd 1080p latino.
Comentarios 0