×

¿Problemas para descargar con Mozilla, EDGE? Deshabilita la opción "Abrir vinculos en una pestaña nueva" tal como lo muestra ésta imagen.

Terror a 47 metros: El segundo ataque (2019) REMUX 1080p Latino

836 vistas

Información de Terror a 47 metros: El segundo ataque (2019) REMUX 1080p Latino

Datos de la película

  • Calidad: Full 1080p
  • Audio: Español Latino AC3 2.0 iTUNES - Ingles DTS 5.1 BURAY
  • Subtitulos: Español Latino PGS - Ingles PGS
  • Resolución: 1920x1080p
  • Formato: MKV
  • Codec: H.264
  • Encoder: CinefiloCool
  • Mediainfo: Clic para Mostrar Datos Ver
  • 47 Meters Down - Uncaged (2019) REMUX 1080p Latino-CMHDD.mkv
    Format                      : Matroska
    Format version              : Version 4
    File size                   : 17.9 GiB
    Duration                    : 1 h 30 min
    Overall bit rate mode       : Variable
    Overall bit rate            : 28.4 Mb/s
    Movie name                  : CinemaniaHDD.Net
    Encoded date                : UTC 2020-01-02 01:15:55
    Writing application         : mkvmerge v38.0.0 ('The Silent Type') 64-bit
    Writing library             : libebml v1.3.9 + libmatroska v1.5.2
    Attachments                 : CINEMANIAHD.png

    Video
    ID                          : 1
    Format                      : AVC
    Format/Info                 : Advanced Video Codec
    Format profile              : High@L4.1
    Format settings             : CABAC / 4 Ref Frames
    Format settings, CABAC      : Yes
    Format settings, ReFrames   : 4 frames
    Codec ID                    : V_MPEG4/ISO/AVC
    Duration                    : 1 h 30 min
    Bit rate mode               : Variable
    Bit rate                    : 24.3 Mb/s
    Maximum bit rate            : 37.0 Mb/s
    Width                       : 1 920 pixels
    Height                      : 1 080 pixels
    Display aspect ratio        : 16:9
    Frame rate mode             : Constant
    Frame rate                  : 23.976 (24000/1001) FPS
    Color space                 : YUV
    Chroma subsampling          : 4:2:0
    Bit depth                   : 8 bits
    Scan type                   : Progressive
    Bits/(Pixel*Frame)          : 0.489
    Stream size                 : 15.3 GiB (86%)
    Title                       : Full HD1080p [REMUX]
    Default                     : Yes
    Forced                      : Yes

    Audio #1
    ID                          : 2
    Format                      : AC-3
    Format/Info                 : Audio Coding 3
    Commercial name             : Dolby Digital
    Codec ID                    : A_AC3
    Duration                    : 1 h 30 min
    Bit rate mode               : Constant
    Bit rate                    : 192 kb/s
    Channel(s)                  : 2 channels
    Channel layout              : L R
    Sampling rate               : 48.0 kHz
    Frame rate                  : 31.250 FPS (1536 SPF)
    Bit depth                   : 16 bits
    Compression mode            : Lossy
    Delay relative to video     : 26 ms
    Stream size                 : 124 MiB (1%)
    Title                       : AC3_2.0_Web_Esp
    Language                    : Spanish
    Service kind                : Complete Main
    Default                     : Yes
    Forced                      : Yes

    Audio #2
    ID                          : 3
    Format                      : DTS XLL
    Format/Info                 : Digital Theater Systems
    Commercial name             : DTS-HD Master Audio
    Codec ID                    : A_DTS
    Duration                    : 1 h 30 min
    Bit rate mode               : Variable
    Bit rate                    : 3 896 kb/s
    Channel(s)                  : 6 channels
    Channel layout              : C L R Ls Rs LFE
    Sampling rate               : 48.0 kHz
    Frame rate                  : 93.750 FPS (512 SPF)
    Bit depth                   : 24 bits
    Compression mode            : Lossless
    Stream size                 : 2.45 GiB (14%)
    Title                       : DTS-HD_5.1_Bluray_Eng
    Language                    : English
    Default                     : No
    Forced                      : No

    Text #1
    ID                          : 4
    Format                      : PGS
    Muxing mode                 : zlib
    Codec ID                    : S_HDMV/PGS
    Codec ID/Info               : Picture based subtitle format used on BDs/HD-DVDs
    Duration                    : 1 h 17 min
    Bit rate                    : 23.9 kb/s
    Count of elements           : 1506
    Stream size                 : 13.2 MiB (0%)
    Title                       : Sub_Esp [PGS]
    Language                    : Spanish
    Default                     : No
    Forced                      : No

    Text #2
    ID                          : 5
    Format                      : PGS
    Muxing mode                 : zlib
    Codec ID                    : S_HDMV/PGS
    Codec ID/Info               : Picture based subtitle format used on BDs/HD-DVDs
    Duration                    : 1 h 17 min
    Bit rate                    : 32.7 kb/s
    Count of elements           : 1744
    Stream size                 : 18.0 MiB (0%)
    Title                       : Sub_Eng [PGS]
    Language                    : English
    Default                     : No
    Forced                      : No

    Text #3
    ID                          : 6
    Format                      : UTF-8
    Codec ID                    : S_TEXT/UTF8
    Codec ID/Info               : UTF-8 Plain Text
    Duration                    : 1 h 16 min
    Bit rate                    : 0 b/s
    Count of elements           : 7
    Stream size                 : 194 Bytes (0%)
    Title                       : Sub_Forzados
    Language                    : Spanish
    Default                     : Yes
    Forced                      : Yes

    Text #4
    ID                          : 7
    Format                      : UTF-8
    Codec ID                    : S_TEXT/UTF8
    Codec ID/Info               : UTF-8 Plain Text
    Duration                    : 1 h 17 min
    Bit rate                    : 34 b/s
    Count of elements           : 749
    Stream size                 : 19.6 KiB (0%)
    Title                       : Sub_Esp
    Language                    : Spanish
    Default                     : No
    Forced                      : No

    Menu
    00:00:00.000                : en:Chapter 01
    00:04:53.793                : en:Chapter 02
    00:10:35.009                : en:Chapter 03
    00:14:18.107                : en:Chapter 04
    00:19:59.990                : en:Chapter 05
    00:23:56.101                : en:Chapter 06
    00:29:16.421                : en:Chapter 07
    00:35:00.389                : en:Chapter 08
    00:39:15.770                : en:Chapter 09
    00:44:44.890                : en:Chapter 10
    00:50:50.130                : en:Chapter 11
    00:54:37.232                : en:Chapter 12
    01:01:03.660                : en:Chapter 13
    01:05:18.664                : en:Chapter 14
    01:10:12.750                : en:Chapter 15
    01:15:22.518                : en:Chapter 16

  • Peso: 17.9 GiB

Sinopsis

Descargar Terror a 47 metros: El segundo ataque (2019) REMUX 1080p Latino. Esta secuela de «A 47 Metros» traslada la mortífera acción de los tiburones desde México a Brasil, y seguirá a un grupo de chicas en busca de aventuras en la costa de Recife. Con la esperanza de salir del rutinario sendero turístico, las chicas escuchan algo acerca de unas ruinas submarinas ocultas, pero descubren que bajo las olas turquesas su Atlantis secreta no está completamente deshabitada.

Ficha técnica

Video trailer de la película

Enlaces de descarga

Rip de Bluray

Descargar Terror a 47 metros: El segundo ataque (2019) REMUX 1080p Latino




Aportes de DPeliculasHDmega la pass es:dpeliculashdmega.org Aportes de CinemaniaHD la pass es:cinemaniahdd.com
Guardado en : Aventura , Remux , Suspenso , Terror

Películas relacionadas

  • El Ultimo Juego (2021) WEB-DL 1080p Latino

    El Ultimo Juego (2021) WEB-DL 1080p Latino

    2021
    El Ultimo Juego (2021) WEB-DL 1080p Latino

    1h 21m 2021

    Descargar El Ultimo Juego (2021) WEB-DL 1080p Latino. 6 extraños se despiertan dentro de una habitación...

    Director: John David Moffat IV

    Género: Drama

    Actores: Yasmin Irvine

  • Invitacion Al Infierno (2022) MA WEB-DL 1080p Latino

    Invitacion Al Infierno (2022) MA WEB-DL 1080p Latino

    2022
    Invitacion Al Infierno (2022) MA WEB-DL 1080p Latino

    1h 45m 2022

    Descargar Invitacion Al Infierno (2022) MA WEB-DL 1080p Latino. Tras la muerte de su madre y quedarse...

    Director: Jessica M. Thompson

    Género: Suspenso

    Actores: Virág Bárány

  • Tremors (1990) REMUX 4K HDR Latino – CMHDD

    Tremors (1990) REMUX 4K HDR Latino – CMHDD

    1990
    Tremors (1990) REMUX 4K HDR Latino – CMHDD

    1h 35m 1990

    En Perfección, un pequeño pueblo al borde del desierto de Nevada, algo parece suceder debajo de la...

    Director: Susan Bierbaum

    Género: Acción

    Actores: Victor Wong

descargar Terror a 47 metros: El segundo ataque (2019) REMUX 1080p Latino Full 1080p 1080p gratis, Terror a 47 metros: El segundo ataque (2019) REMUX 1080p Latino Full 1080p mega 1 link, Terror a 47 metros: El segundo ataque (2019) REMUX 1080p Latino Full 1080p pelicula completa, descargar Terror a 47 metros: El segundo ataque (2019) REMUX 1080p Latino Full 1080p gratis en mega.

Terror a 47 metros: El segundo ataque (2019) REMUX 1080p Latino pelicula full hd, Terror a 47 metros: El segundo ataque (2019) REMUX 1080p Latino mega latino, Terror a 47 metros: El segundo ataque (2019) REMUX 1080p Latino 4k latino, Terror a 47 metros: El segundo ataque (2019) REMUX 1080p Latino pelicula completa, Terror a 47 metros: El segundo ataque (2019) REMUX 1080p Latino descargar gratis, descargar Terror a 47 metros: El segundo ataque (2019) REMUX 1080p Latino pelicula latino, Terror a 47 metros: El segundo ataque (2019) REMUX 1080p Latino 1 link mega, Terror a 47 metros: El segundo ataque (2019) REMUX 1080p Latino 1 link google drive, Terror a 47 metros: El segundo ataque (2019) REMUX 1080p Latino hd 1080p latino.
Comentarios 1
  • Octavio Cesar posadas Martinez - 02 enero, 2020

    Gracias por el remux, saludos