×

¿Problemas para descargar con Mozilla, EDGE? Deshabilita la opción "Abrir vinculos en una pestaña nueva" tal como lo muestra ésta imagen.

40 Days and 40 Nights (2002) REMUX 1080p Latino – CMHDD

68 vistas

Información de 40 Days and 40 Nights (2002) REMUX 1080p Latino – CMHDD

Datos de la película

  • Calidad: Full 1080p
  • Audio: Español Latino AC3 5.1 BLURAY - Ingles DTS 5.1 BLURAY
  • Subtitulos: Español Latino PGS
  • Resolución: 19201080p
  • Formato: MKV
  • Codec: H.264
  • Encoder: Dracarys
  • Mediainfo: Clic para Mostrar Datos Ver
  • Format                      : Matroska
    Format version              : Version 4
    File size                   : 16.0 GiB
    Duration                    : 1 h 35 min
    Overall bit rate mode       : Variable
    Overall bit rate            : 24.0 Mb/s
    Movie name                  : 40 Days and 40 Nights (2002) REMUX 1080p Latino - CMHDD
    Encoded date                : UTC 2024-01-14 21:18:38
    Writing application         : mkvmerge v47.0.0 ('Black Flag') 64-bit
    Writing library             : libebml v1.3.10 + libmatroska v1.5.2

    Video
    ID                          : 1
    Format                      : AVC
    Format/Info                 : Advanced Video Codec
    Format profile              : High@L4.1
    Format settings             : CABAC / 4 Ref Frames
    Format settings, CABAC      : Yes
    Format settings, Reference  : 4 frames
    Codec ID                    : V_MPEG4/ISO/AVC
    Duration                    : 1 h 35 min
    Bit rate mode               : Variable
    Bit rate                    : 19.4 Mb/s
    Maximum bit rate            : 33.0 Mb/s
    Width                       : 1 920 pixels
    Height                      : 1 080 pixels
    Display aspect ratio        : 16:9
    Frame rate mode             : Constant
    Frame rate                  : 23.976 (24000/1001) FPS
    Color space                 : YUV
    Chroma subsampling          : 4:2:0
    Bit depth                   : 8 bits
    Scan type                   : Progressive
    Bits/(Pixel*Frame)          : 0.391
    Stream size                 : 13.0 GiB (81%)
    Language                    : English
    Default                     : Yes
    Forced                      : No

    Audio #1
    ID                          : 2
    Format                      : AC-3
    Format/Info                 : Audio Coding 3
    Commercial name             : Dolby Digital
    Codec ID                    : A_AC3
    Duration                    : 1 h 35 min
    Bit rate mode               : Constant
    Bit rate                    : 640 kb/s
    Channel(s)                  : 6 channels
    Channel layout              : L R C LFE Ls Rs
    Sampling rate               : 48.0 kHz
    Frame rate                  : 31.250 FPS (1536 SPF)
    Compression mode            : Lossy
    Stream size                 : 437 MiB (3%)
    Language                    : Spanish
    Service kind                : Complete Main
    Default                     : Yes
    Forced                      : No

    Audio #2
    ID                          : 3
    Format                      : DTS XLL
    Format/Info                 : Digital Theater Systems
    Commercial name             : DTS-HD Master Audio
    Codec ID                    : A_DTS
    Duration                    : 1 h 35 min
    Bit rate mode               : Variable
    Bit rate                    : 3 934 kb/s
    Channel(s)                  : 6 channels
    Channel layout              : C L R Ls Rs LFE
    Sampling rate               : 48.0 kHz
    Frame rate                  : 93.750 FPS (512 SPF)
    Bit depth                   : 24 bits
    Compression mode            : Lossless
    Stream size                 : 2.62 GiB (16%)
    Language                    : English
    Default                     : No
    Forced                      : No

    Text #1
    ID                          : 4
    Format                      : UTF-8
    Codec ID                    : S_TEXT/UTF8
    Codec ID/Info               : UTF-8 Plain Text
    Duration                    : 1 h 28 min
    Bit rate                    : 63 b/s
    Frame rate                  : 0.239 FPS
    Count of elements           : 1273
    Stream size                 : 41.0 KiB (0%)
    Language                    : Spanish
    Default                     : No
    Forced                      : No

    Text #2
    ID                          : 5
    Format                      : PGS
    Muxing mode                 : zlib
    Codec ID                    : S_HDMV/PGS
    Codec ID/Info               : Picture based subtitle format used on BDs/HD-DVDs
    Duration                    : 1 h 28 min
    Bit rate                    : 47.4 kb/s
    Frame rate                  : 0.392 FPS
    Count of elements           : 2088
    Stream size                 : 30.1 MiB (0%)
    Language                    : Spanish
    Default                     : No
    Forced                      : No

    Menu
    00:00:00.000                : en:Chapter 01
    00:06:58.334                : en:Chapter 02
    00:15:03.569                : en:Chapter 03
    00:22:56.875                : en:Chapter 04
    00:30:20.568                : en:Chapter 05
    00:37:41.050                : en:Chapter 06
    00:44:38.967                : en:Chapter 07
    00:52:40.323                : en:Chapter 08
    00:59:31.442                : en:Chapter 09
    01:09:30.249                : en:Chapter 10
    01:14:32.718                : en:Chapter 11
    01:24:25.226                : en:Chapter 12

     

  • Peso: 16.0 GiB

Sinopsis

La última relación de Matt (Josh Hartnett) con su idealizada Nicole (Vinessa Shaw) acabó muy mal, y tras la ruptura se embarcó en una avalancha de citas que tan sólo aumentaron su sensación de vacío. Entonces decide que no quiere saber nada de chicas, por lo que se autoimpone un celibato de 40 días y 40 noches sin tener sexo. De ninguna clase. El problema surge cuando, al tercer día, conoce a Erica (Shannyn Sossamon), la mujer de sus sueños…

Ficha técnica

  • Titulo original: 40 Days and 40 Nights
  • Fecha de lanzamiento: 01-03-2002 (France, United Kingdom, United States of America)
  • Director: Michael Lehmann
  • Género: Comedia, Romance

Video trailer de la película

Enlaces de descarga

Rip de Bluray

Descargar 40 Days and 40 Nights (2002) REMUX 1080p Latino – CMHDD




Aportes de DPeliculasHDmega la pass es:dpeliculashdmega.org Aportes de CinemaniaHD la pass es:cinemaniahdd.com Aportes recientes:cinemaniahdd.net
Guardado en : Comedia , Romance

Películas relacionadas

  • La Duquesa (2008) Full HD 1080p Latino-CMHDD

    La Duquesa (2008) Full HD 1080p Latino-CMHDD

    2008
    La Duquesa (2008) Full HD 1080p Latino-CMHDD

    1h 51m 2008

    Descargar La Duquesa (2008) Full HD 1080p Latino-CMHDD. Hermosa, glamurosa y adorada por el pueblo, Georgiana...

    Director: Saul Dibb

    Género: Drama

    Actores: Thomas Arnold

  • La Duquesa (2008) REMUX 1080p Latino-CMHDD

    La Duquesa (2008) REMUX 1080p Latino-CMHDD

    2008
    La Duquesa (2008) REMUX 1080p Latino-CMHDD

    1h 51m 2008

    Descargar La Duquesa (2008) REMUX 1080p Latino-CMHDD. Hermosa, glamurosa y adorada por el pueblo, Georgiana...

    Director: Saul Dibb

    Género: Drama

    Actores: Thomas Arnold

  • Nada que ver (2023) WEB-DL 1080p Latino

    Nada que ver (2023) WEB-DL 1080p Latino

    2023
    Nada que ver (2023) WEB-DL 1080p Latino

    1h 30m 2023

    Descargar Nada que ver (2023) WEB-DL 1080p Latino. Después de que Carlos tiene la tarea de cuidar a...

    Director: Kenya Marquez

    Género: Comedia

    Actores: Rebecca Jones

descargar 40 Days and 40 Nights (2002) REMUX 1080p Latino – CMHDD Full 1080p 1080p gratis, 40 Days and 40 Nights (2002) REMUX 1080p Latino – CMHDD Full 1080p mega 1 link, 40 Days and 40 Nights (2002) REMUX 1080p Latino – CMHDD Full 1080p pelicula completa, descargar 40 Days and 40 Nights (2002) REMUX 1080p Latino – CMHDD Full 1080p gratis en mega.

40 Days and 40 Nights (2002) REMUX 1080p Latino – CMHDD pelicula full hd, 40 Days and 40 Nights (2002) REMUX 1080p Latino – CMHDD mega latino, 40 Days and 40 Nights (2002) REMUX 1080p Latino – CMHDD 4k latino, 40 Days and 40 Nights (2002) REMUX 1080p Latino – CMHDD pelicula completa, 40 Days and 40 Nights (2002) REMUX 1080p Latino – CMHDD descargar gratis, descargar 40 Days and 40 Nights (2002) REMUX 1080p Latino – CMHDD pelicula latino, 40 Days and 40 Nights (2002) REMUX 1080p Latino – CMHDD 1 link mega, 40 Days and 40 Nights (2002) REMUX 1080p Latino – CMHDD 1 link google drive, 40 Days and 40 Nights (2002) REMUX 1080p Latino – CMHDD hd 1080p latino.
Comentarios 0