×

¿Problemas para descargar con Mozilla, EDGE? Deshabilita la opción "Abrir vinculos en una pestaña nueva" tal como lo muestra ésta imagen.

40 Días y 40 Noches (2002) Full HD 1080p Latino

457 vistas

Información de 40 Días y 40 Noches (2002) Full HD 1080p Latino

Datos de la película

  • Calidad: Full 1080p
  • Audio: Español Latino DTS 5.1 BLURAY - Ingles DTS 5.1 BLURAY
  • Subtitulos: Español Latino PGS - Ingles PGS
  • Resolución: 1920x1080p
  • Formato: MKV
  • Codec: H.264
  • Encoder: CinefiloCool
  • Mediainfo: Clic para Mostrar Datos Ver
  • 40 Dias Y 40 Noches (2002) Full HD 1080p Latino-CMHDD.mkv
    Format                      : Matroska
    Format version              : Version 4
    File size                   : 6.97 GiB
    Duration                    : 1 h 35 min
    Overall bit rate            : 10.5 Mb/s
    Movie name                  : 40 Days & 40 Nights  (2002) CinemaniaHDD.Net
    Encoded date                : UTC 2020-05-27 20:39:15
    Writing application         : mkvmerge v46.0.0 ('No Deeper Escape') 64-bit
    Writing library             : libebml v1.3.10 + libmatroska v1.5.2
    Attachments                 : CINEMANIAHD.png

    Video
    ID                          : 1
    Format                      : AVC
    Format/Info                 : Advanced Video Codec
    Format profile              : High@L4.1
    Format settings             : CABAC / 4 Ref Frames
    Format settings, CABAC      : Yes
    Format settings, Reference  : 4 frames
    Codec ID                    : V_MPEG4/ISO/AVC
    Duration                    : 1 h 35 min
    Bit rate                    : 7 404 kb/s
    Width                       : 1 920 pixels
    Height                      : 1 080 pixels
    Display aspect ratio        : 16:9
    Frame rate mode             : Constant
    Frame rate                  : 23.976 (24000/1001) FPS
    Color space                 : YUV
    Chroma subsampling          : 4:2:0
    Bit depth                   : 8 bits
    Scan type                   : Progressive
    Bits/(Pixel*Frame)          : 0.149
    Stream size                 : 4.94 GiB (71%)
    Title                       : Full HD1080p [CinemaniaHDD]
    Writing library             : x264 core 157 r2935 545de2f
    Encoding settings           : cabac=1 / ref=4 / deblock=1:0:0 / analyse=0x3:0x133 / me=tesa / subme=11 / psy=1 / psy_rd=1.00:0.00 / mixed_ref=1 / me_range=24 / chroma_me=1 / trellis=2 / 8x8dct=1 / cqm=0 / deadzone=21,11 / fast_pskip=0 / chroma_qp_offset=-2 / threads=24 / lookahead_threads=6 / sliced_threads=0 / nr=0 / decimate=1 / interlaced=0 / bluray_compat=0 / constrained_intra=0 / bframes=16 / b_pyramid=2 / b_adapt=2 / b_bias=0 / direct=3 / weightb=1 / open_gop=0 / weightp=2 / keyint=240 / keyint_min=24 / scenecut=40 / intra_refresh=0 / rc_lookahead=60 / rc=crf / mbtree=1 / crf=20.0 / qcomp=0.60 / qpmin=0 / qpmax=69 / qpstep=4 / vbv_maxrate=62500 / vbv_bufsize=78125 / crf_max=0.0 / nal_hrd=none / filler=0 / ip_ratio=1.40 / aq=1:1.00
    Default                     : Yes
    Forced                      : Yes
    Color range                 : Limited
    Color primaries             : BT.709
    Transfer characteristics    : BT.709
    Matrix coefficients         : BT.709

    Audio #1
    ID                          : 2
    ID in the original source m : 4353 (0x1101)
    Format                      : DTS
    Format/Info                 : Digital Theater Systems
    Codec ID                    : A_DTS
    Duration                    : 1 h 35 min
    Bit rate mode               : Constant
    Bit rate                    : 1 509 kb/s
    Channel(s)                  : 6 channels
    Channel layout              : C L R Ls Rs LFE
    Sampling rate               : 48.0 kHz
    Frame rate                  : 93.750 FPS (512 SPF)
    Bit depth                   : 24 bits
    Compression mode            : Lossy
    Stream size                 : 1.01 GiB (14%)
    Title                       : Español Latino [CinemaniaHDD]
    Language                    : Spanish
    Default                     : Yes
    Forced                      : Yes
    Original source medium      : Blu-ray

    Audio #2
    ID                          : 3
    ID in the original source m : 4352 (0x1100)
    Format                      : DTS
    Format/Info                 : Digital Theater Systems
    Codec ID                    : A_DTS
    Duration                    : 1 h 35 min
    Bit rate mode               : Constant
    Bit rate                    : 1 509 kb/s
    Channel(s)                  : 6 channels
    Channel layout              : C L R Ls Rs LFE
    Sampling rate               : 48.0 kHz
    Frame rate                  : 93.750 FPS (512 SPF)
    Bit depth                   : 24 bits
    Compression mode            : Lossy
    Stream size                 : 1.01 GiB (14%)
    Title                       : Ingles [CinemaniaHDD]
    Language                    : English
    Default                     : No
    Forced                      : No
    Original source medium      : Blu-ray

    Text #1
    ID                          : 4
    ID in the original source m : 4610 (0x1202)
    Format                      : PGS
    Muxing mode                 : zlib
    Codec ID                    : S_HDMV/PGS
    Codec ID/Info               : Picture based subtitle format used on BDs/HD-DVDs
    Duration                    : 1 h 28 min
    Bit rate                    : 47.4 kb/s
    Count of elements           : 2088
    Stream size                 : 30.1 MiB (0%)
    Title                       : Español-PGS [CinemaniaHDD]
    Language                    : Spanish
    Default                     : No
    Forced                      : No
    Original source medium      : Blu-ray

    Text #2
    ID                          : 5
    ID in the original source m : 4608 (0x1200)
    Format                      : PGS
    Muxing mode                 : zlib
    Codec ID                    : S_HDMV/PGS
    Codec ID/Info               : Picture based subtitle format used on BDs/HD-DVDs
    Duration                    : 1 h 29 min
    Bit rate                    : 52.4 kb/s
    Count of elements           : 2159
    Stream size                 : 33.4 MiB (0%)
    Title                       : Ingles-PGS [CinemaniaHDD]
    Language                    : English
    Default                     : No
    Forced                      : No
    Original source medium      : Blu-ray

    Text #3
    ID                          : 6
    Format                      : UTF-8
    Codec ID                    : S_TEXT/UTF8
    Codec ID/Info               : UTF-8 Plain Text
    Duration                    : 3 s 500 ms
    Bit rate                    : 43 b/s
    Count of elements           : 1
    Stream size                 : 19.0 Bytes (0%)
    Title                       : Forzados-SRT [CinemaniaHDD]
    Language                    : Spanish
    Default                     : Yes
    Forced                      : Yes

    Text #4
    ID                          : 7
    Format                      : UTF-8
    Codec ID                    : S_TEXT/UTF8
    Codec ID/Info               : UTF-8 Plain Text
    Duration                    : 1 h 28 min
    Bit rate                    : 63 b/s
    Count of elements           : 1273
    Stream size                 : 41.0 KiB (0%)
    Title                       : Español-SRT [CinemaniaHDD]
    Language                    : Spanish
    Default                     : No
    Forced                      : No

    Menu
    00:00:00.000                : en:Chapter 01
    00:06:58.334                : en:Chapter 02
    00:15:03.569                : en:Chapter 03
    00:22:56.875                : en:Chapter 04
    00:30:20.568                : en:Chapter 05
    00:37:41.050                : en:Chapter 06
    00:44:38.967                : en:Chapter 07
    00:52:40.323                : en:Chapter 08
    00:59:31.442                : en:Chapter 09
    01:09:30.249                : en:Chapter 10
    01:14:32.718                : en:Chapter 11
    01:24:25.226                : en:Chapter 12

  • Peso: 6.97 GiB

Sinopsis

Descargar 40 Días y 40 Noches (2002) Full HD 1080p Latino. La última relación de Matt (Josh Hartnett) con su idealizada Nicole (Vinessa Shaw) acabó muy mal, y tras la ruptura se embarcó en una avalancha de citas que tan sólo aumentaron su sensación de vacío. Entonces decide que no quiere saber nada de chicas, por lo que se autoimpone un celibato de 40 días y 40 noches sin tener sexo. De ninguna clase. El problema surge cuando, al tercer día, conoce a Erica (Shannyn Sossamon), la mujer de sus sueños…

Ficha técnica

Video trailer de la película

Enlaces de descarga

Rip de Bluray

Descargar 40 Días y 40 Noches (2002) Full HD 1080p Latino




Aportes de DPeliculasHDmega la pass es:dpeliculashdmega.org Aportes de CinemaniaHD la pass es:cinemaniahdd.com

Películas relacionadas

  • Paradise Highway (2022) PLACEBO Full HD 1080p Latino

    Paradise Highway (2022) PLACEBO Full HD 1080p Latino

    2022
    Paradise Highway (2022) PLACEBO Full HD 1080p Latino

    1h 55m 2022

    Descargar Paradise Highway (2022) PLACEBO Full HD 1080p Latino. Un camionero se ha visto obligado a pasar...

    Director: Anna Gutto

    Género: Crimen

    Actores: Xavier Scott Evans

  • Shotgun Wedding (2022) AMZN WEB-DL 1080p Latino

    Shotgun Wedding (2022) AMZN WEB-DL 1080p Latino

    2022
    Shotgun Wedding (2022) AMZN WEB-DL 1080p Latino

    1h 41m 2022

    Darcy y Tom reúnen a sus familias para la boda de destino definitiva, pero cuando toman como rehenes...

    Director: Jason Moore

    Género: Acción

    Actores: Steve Coulter

  • M3GAN (2023) AMZN WEB-DL 4K UHD HDR Latino

    M3GAN (2023) AMZN WEB-DL 4K UHD HDR Latino

    2022
    M3GAN (2023) AMZN WEB-DL 4K UHD HDR Latino

    1h 42m 2022

    Descargar M3GAN (2023) AMZN WEB-DL 4K UHD HDR Latino. Cuando Gemma se convierte en la cuidadora de su...

    Director: Stephen W. Moore

    Género: 4K HDR

    Actores: Violet McGraw

  • M3GAN (2022) MA WEB-DL 1080p Latino

    M3GAN (2022) MA WEB-DL 1080p Latino

    2022
    M3GAN (2022) MA WEB-DL 1080p Latino

    1h 42m 2022

    Descargar M3GAN (2022) MA WEB-DL 1080p Latino. Cuando Gemma se convierte en la cuidadora de su sobrina...

    Director: Stephen W. Moore

    Género: Ciencia ficción

    Actores: Violet McGraw

  • Noche sin paz (2022) PLACEBO Full HD 1080p Latino

    Noche sin paz (2022) PLACEBO Full HD 1080p Latino

    2022
    Noche sin paz (2022) PLACEBO Full HD 1080p Latino

    1h 41m 2022

    Descargar Noche sin paz (2022) PLACEBO Full HD 1080p Latino. Cuando un equipo de mercenarios irrumpe...

    Director: Tyshana Hobson

    Género: Acción

    Actores: Yoon Cha-Lee

descargar 40 Días y 40 Noches (2002) Full HD 1080p Latino Full 1080p 1080p gratis, 40 Días y 40 Noches (2002) Full HD 1080p Latino Full 1080p mega 1 link, 40 Días y 40 Noches (2002) Full HD 1080p Latino Full 1080p pelicula completa, descargar 40 Días y 40 Noches (2002) Full HD 1080p Latino Full 1080p gratis en mega.

40 Días y 40 Noches (2002) Full HD 1080p Latino pelicula full hd, 40 Días y 40 Noches (2002) Full HD 1080p Latino mega latino, 40 Días y 40 Noches (2002) Full HD 1080p Latino 4k latino, 40 Días y 40 Noches (2002) Full HD 1080p Latino pelicula completa, 40 Días y 40 Noches (2002) Full HD 1080p Latino descargar gratis, descargar 40 Días y 40 Noches (2002) Full HD 1080p Latino pelicula latino, 40 Días y 40 Noches (2002) Full HD 1080p Latino 1 link mega, 40 Días y 40 Noches (2002) Full HD 1080p Latino 1 link google drive, 40 Días y 40 Noches (2002) Full HD 1080p Latino hd 1080p latino.
Comentarios 0