Harry Potter y el cáliz de fuego (2005) 1080p REMUX 1080p Latino

301 vistas
1 estrella2 estrellas3 estrellas4 estrellas5 estrellas (1 votos, promedio: 5,00 de 5)
Cargando...

Información de Harry Potter y el cáliz de fuego (2005) 1080p REMUX 1080p Latino

Datos de la película

  • Calidad: Full 1080p
  • Audio: Español Latino AC3 5.1 BLURAY - Ingles DTS 5.1 BLURAY
  • Subtitulos: Español Latino SRT- FORZADOS SRT
  • Resolución: 1920x1080p
  • Formato: MKV
  • Codec: H.264
  • Encoder: Dracarys
  • Mediainfo: Clic para Mostrar Datos Ver
  • Format                      : Matroska
    Format version              : Version 4
    File size                   : 21.6 GiB
    Duration                    : 2 h 37 min
    Overall bit rate            : 19.6 Mb/s
    Movie name                  : CinemaniaHDD.net
    Encoded date                : UTC 2020-04-26 23:37:11
    Writing application         : mkvmerge v38.0.0 ('The Silent Type') 64-bit
    Writing library             : libebml v1.3.9 + libmatroska v1.5.2

    Video
    ID                          : 1
    Format                      : VC-1
    Format profile              : Advanced@L3
    Codec ID                    : V_MS/VFW/FOURCC / WVC1
    Codec ID/Hint               : Microsoft
    Duration                    : 2 h 37 min
    Bit rate                    : 12.9 Mb/s
    Width                       : 1 920 pixels
    Height                      : 1 080 pixels
    Display aspect ratio        : 16:9
    Frame rate mode             : Constant
    Frame rate                  : 23.976 (24000/1001) FPS
    Color space                 : YUV
    Chroma subsampling          : 4:2:0
    Bit depth                   : 8 bits
    Scan type                   : Progressive
    Compression mode            : Lossy
    Bits/(Pixel*Frame)          : 0.259
    Stream size                 : 14.1 GiB (66%)
    Language                    : English
    Default                     : Yes
    Forced                      : No

    Audio #1
    ID                          : 2
    Format                      : AC-3
    Format/Info                 : Audio Coding 3
    Commercial name             : Dolby Digital
    Codec ID                    : A_AC3
    Duration                    : 2 h 37 min
    Bit rate mode               : Constant
    Bit rate                    : 640 kb/s
    Channel(s)                  : 6 channels
    Channel layout              : L R C LFE Ls Rs
    Sampling rate               : 48.0 kHz
    Frame rate                  : 31.250 FPS (1536 SPF)
    Bit depth                   : 16 bits
    Compression mode            : Lossy
    Stream size                 : 719 MiB (3%)
    Title                       : AC3
    Language                    : Spanish
    Service kind                : Complete Main
    Default                     : Yes
    Forced                      : No

    Audio #2
    ID                          : 3
    Format                      : DTS
    Format/Info                 : Digital Theater Systems
    Codec ID                    : A_DTS
    Duration                    : 2 h 37 min
    Bit rate mode               : Constant
    Bit rate                    : 1 510 kb/s
    Channel(s)                  : 6 channels
    Channel layout              : C L R Ls Rs LFE
    Sampling rate               : 48.0 kHz
    Frame rate                  : 93.750 FPS (512 SPF)
    Bit depth                   : 24 bits
    Compression mode            : Lossy
    Stream size                 : 1.66 GiB (8%)
    Title                       : DTS
    Language                    : English
    Default                     : No
    Forced                      : No

    Audio #3
    ID                          : 4
    Format                      : PCM
    Format settings             : Little / Signed
    Codec ID                    : A_PCM/INT/LIT
    Duration                    : 2 h 37 min
    Bit rate mode               : Constant
    Bit rate                    : 4 608 kb/s
    Channel(s)                  : 6 channels
    Sampling rate               : 48.0 kHz
    Frame rate                  : 32.000 FPS (1500 SPF)
    Bit depth                   : 16 bits
    Stream size                 : 5.06 GiB (23%)
    Title                       : PCM
    Language                    : English
    Default                     : No
    Forced                      : No

    Text #1
    ID                          : 5
    Format                      : UTF-8
    Codec ID                    : S_TEXT/UTF8
    Codec ID/Info               : UTF-8 Plain Text
    Duration                    : 35 min 19 s
    Bit rate                    : 0 b/s
    Count of elements           : 5
    Stream size                 : 163 Bytes (0%)
    Title                       : SRT-Forzados
    Language                    : Spanish
    Default                     : Yes
    Forced                      : No

    Text #2
    ID                          : 6
    Format                      : UTF-8
    Codec ID                    : S_TEXT/UTF8
    Codec ID/Info               : UTF-8 Plain Text
    Duration                    : 2 h 25 min
    Bit rate                    : 46 b/s
    Count of elements           : 1501
    Stream size                 : 49.5 KiB (0%)
    Title                       : SRT-Completos
    Language                    : Spanish
    Default                     : No
    Forced                      : No

    Text #3
    ID                          : 7
    Format                      : PGS
    Muxing mode                 : zlib
    Codec ID                    : S_HDMV/PGS
    Codec ID/Info               : Picture based subtitle format used on BDs/HD-DVDs
    Duration                    : 2 h 36 min
    Bit rate                    : 24.2 kb/s
    Count of elements           : 2996
    Stream size                 : 27.1 MiB (0%)
    Title                       : PGS-Completos
    Language                    : Spanish
    Default                     : No
    Forced                      : No

    Menu
    00:00:00.000                : en:The Riddle House
    00:03:46.560                : en:The Hungrian Horntail
    00:06:09.369                : en:Sirius Conversation
    00:09:50.089                : en:Rita Keeter
    00:13:45.324                : en:Let Events Unfold
    00:19:14.987                : en:The Four Champions
    00:23:09.388                : en:The Unforgivable Curses
    00:29:01.573                : en:The Goblet of Fire
    00:36:26.684                : en:The Triwizard Tournament
    00:39:05.009                : en:The Dark Mark
    00:41:32.490                : en:The Quidditch World Cup
    00:45:36.400                : en:The Portkey
    00:49:07.778                : en:Best Foot Forward
    00:54:06.243                : en:The First Task
    01:02:46.596                : en:Tranforming Malfoy
    01:09:12.982                : en:An Unexpected Challenge
    01:14:43.979                : en:The Yule Ball
    01:22:27.609                : en:The Egg's Clue
    01:30:34.763                : en:The Second Task
    01:39:29.297                : en:Never Whole Again
    01:42:42.490                : en:The Pensieve
    01:47:22.936                : en:Dreams and Suspicions
    01:50:19.279                : en:The Third Task
    01:58:54.461                : en:Flesh, Blood and Bone
    02:02:02.315                : en:The Death Eaters
    02:06:36.589                : en:Priori Incantatem
    02:10:01.627                : en:Veritaserum
    02:17:38.083                : en:Parting Ways
    02:23:48.620                : en:End Credits

  • Peso: 21.6 GiB

Sinopsis

En el cuarto año en Hogwarts, Harry se enfrenta al mayor de los desafíos y peligros de la saga. Cuando es elegido bajo misteriosas circunstancias como el competidor que representará a Hogwarts en el Torneo Triwizard, Harry deberá competir contra los mejores jóvenes magos de toda Europa. Pero mientras se prepara, aparecen pruebas que manifiestan que Lord Voldemort ha regresado. Antes de darse cuenta, Harry no solo estará luchando por el campeonato sino también por su vida

Ficha técnica

Video trailer de la película

Enlaces de descarga

Rip de Bluray

Descargar Harry Potter y el cáliz de fuego (2005) 1080p REMUX 1080p Latino




Aportes de DPeliculasHDmega la pass es:dpeliculashdmega.org Aportes de CinemaniaHD la pass es:cinemaniahdd.com
Guardado en : Aventura , Familia , Fantasía , Remux

Películas relacionadas

  • Nadie (2021) REMUX 1080p Latino

    Nadie (2021) REMUX 1080p Latino

    2021
    Nadie (2021) REMUX 1080p Latino

    5.0 1h 32m 2021

    Descargar Nadie (2021) REMUX 1080p Latino. Hutch Mansell, un padre de familia que aguanta con resignación...

    Director: Ilya Naishuller

    Género: Acción

    Actores: Yulia Guzhva

  • Annabelle 3: Viene A Casa (2019) REMUX 1080p Latino

    Annabelle 3: Viene A Casa (2019) REMUX 1080p Latino

    2019
    Annabelle 3: Viene A Casa (2019) REMUX 1080p Latino

    5.0 1h 46m 2019

    Descargar Annabelle 3 Vuelve a casa (2019) REMUX 1080p Latino. Annabelle Vuelve a Casa es la tercera...

    Director: Gary Dauberman

    Género: Misterio

    Actores: Vera Farmiga

  • Annabelle 2: La Creación (2017) REMUX 1080p Latino

    Annabelle 2: La Creación (2017) REMUX 1080p Latino

    2017
    Annabelle 2: La Creación (2017) REMUX 1080p Latino

    3.0 1h 49m 2017

    Descargar Annabelle 2: La Creación (2017) REMUX 1080p Latino. Varios años después del trágico fallecimiento...

    Director: Jan McWilliams

    Género: Misterio

    Actores: Ward Horton

  • Annabelle (2014) REMUX 1080p Latino

    Annabelle (2014) REMUX 1080p Latino

    2014
    Annabelle (2014) REMUX 1080p Latino

    5.0 1h 38m 2014

    Descargar Annabelle (2014) REMUX 1080p Latino. John Form encuentra el regalo perfecto para su mujer embarazada,...

    Director: Sherie Giehtbrock

    Género: Remux

    Actores: Ward Horton

  • Ruega por nosotros (2021) REMUX 1080p Latino

    Ruega por nosotros (2021) REMUX 1080p Latino

    2021
    Ruega por nosotros (2021) REMUX 1080p Latino

    5.0 1h 39m 2021

    Descargar Ruega por nosotros (2021) REMUX 1080p Latino. Se centra en un periodista caído en desgracia...

    Director: Evan Spiliotopoulos

    Género: Remux

    Actores: William Sadler

Harry Potter y el cáliz de fuego (2005) 1080p REMUX 1080p Latino pelicula full hd, Harry Potter y el cáliz de fuego (2005) 1080p REMUX 1080p Latino mega latino, Harry Potter y el cáliz de fuego (2005) 1080p REMUX 1080p Latino 4k latino, Harry Potter y el cáliz de fuego (2005) 1080p REMUX 1080p Latino pelicula completa, Harry Potter y el cáliz de fuego (2005) 1080p REMUX 1080p Latino descargar gratis, descargar Harry Potter y el cáliz de fuego (2005) 1080p REMUX 1080p Latino pelicula latino, Harry Potter y el cáliz de fuego (2005) 1080p REMUX 1080p Latino 1 link mega, Harry Potter y el cáliz de fuego (2005) 1080p REMUX 1080p Latino 1 link google drive, Harry Potter y el cáliz de fuego (2005) 1080p REMUX 1080p Latino hd 1080p latino.
Comentarios 0