×

¿Problemas para descargar con Mozilla, EDGE? Deshabilita la opción "Abrir vinculos en una pestaña nueva" tal como lo muestra ésta imagen.

300 El origen de un imperio (2014) HD 1080p Latino – CMHDD

486 vistas

Información de 300 El origen de un imperio (2014) HD 1080p Latino – CMHDD

Datos de la película

  • Calidad: 1080p
  • Audio: Español Latino AC3 5.1 BLURAY - Ingles AC3 5.1 BLURAY
  • Subtitulos: Español Latino SRT
  • Resolución: 1920x800p
  • Formato: MKV
  • Codec: H.264
  • Encoder: Dracarys
  • Mediainfo: Clic para Mostrar Datos Ver
  • Format                      : Matroska
    Format version              : Version 4
    File size                   : 3.23 GiB
    Duration                    : 1 h 42 min
    Overall bit rate            : 4 502 kb/s
    Movie name                  : 300 El origen de un imperio (2014) HD 1080p Latino - CMHDD
    Encoded date                : UTC 2020-07-16 00:26:34
    Writing application         : mkvmerge v46.0.0 ('No Deeper Escape') 64-bit
    Writing library             : libebml v1.3.10 + libmatroska v1.5.2

    Video
    ID                          : 1
    Format                      : AVC
    Format/Info                 : Advanced Video Codec
    Format profile              : High@L4.1
    Format settings             : CABAC / 5 Ref Frames
    Format settings, CABAC      : Yes
    Format settings, Reference  : 5 frames
    Codec ID                    : V_MPEG4/ISO/AVC
    Duration                    : 1 h 42 min
    Bit rate                    : 3 500 kb/s
    Width                       : 1 920 pixels
    Height                      : 800 pixels
    Display aspect ratio        : 2.40:1
    Frame rate mode             : Constant
    Frame rate                  : 23.976 (24000/1001) FPS
    Color space                 : YUV
    Chroma subsampling          : 4:2:0
    Bit depth                   : 8 bits
    Scan type                   : Progressive
    Bits/(Pixel*Frame)          : 0.095
    Stream size                 : 2.44 GiB (76%)
    Writing library             : x264 core 157 r2935 545de2f
    Encoding settings           : cabac=1 / ref=5 / deblock=1:0:0 / analyse=0x3:0x113 / me=hex / subme=8 / psy=1 / psy_rd=1.00:0.00 / mixed_ref=1 / me_range=16 / chroma_me=1 / trellis=2 / 8x8dct=1 / cqm=0 / deadzone=21,11 / fast_pskip=1 / chroma_qp_offset=-2 / threads=24 / lookahead_threads=4 / sliced_threads=0 / nr=0 / decimate=1 / interlaced=0 / bluray_compat=0 / constrained_intra=0 / bframes=3 / b_pyramid=2 / b_adapt=1 / b_bias=0 / direct=3 / weightb=1 / open_gop=0 / weightp=2 / keyint=240 / keyint_min=24 / scenecut=40 / intra_refresh=0 / rc_lookahead=50 / rc=abr / mbtree=1 / bitrate=3500 / ratetol=1.0 / qcomp=0.60 / qpmin=0 / qpmax=69 / qpstep=4 / vbv_maxrate=62500 / vbv_bufsize=78125 / nal_hrd=none / filler=0 / ip_ratio=1.40 / aq=1:1.00
    Default                     : Yes
    Forced                      : No
    Color range                 : Limited
    Color primaries             : BT.709
    Transfer characteristics    : BT.709
    Matrix coefficients         : BT.709

    Audio #1
    ID                          : 2
    Format                      : AC-3
    Format/Info                 : Audio Coding 3
    Commercial name             : Dolby Digital
    Codec ID                    : A_AC3
    Duration                    : 1 h 42 min
    Bit rate mode               : Constant
    Bit rate                    : 448 kb/s
    Channel(s)                  : 6 channels
    Channel layout              : L R C LFE Ls Rs
    Sampling rate               : 48.0 kHz
    Frame rate                  : 31.250 FPS (1536 SPF)
    Compression mode            : Lossy
    Stream size                 : 329 MiB (10%)
    Language                    : Spanish
    Service kind                : Complete Main
    Default                     : Yes
    Forced                      : No

    Audio #2
    ID                          : 3
    Format                      : AC-3
    Format/Info                 : Audio Coding 3
    Commercial name             : Dolby Digital
    Codec ID                    : A_AC3
    Duration                    : 1 h 42 min
    Bit rate mode               : Constant
    Bit rate                    : 640 kb/s
    Channel(s)                  : 6 channels
    Channel layout              : L R C LFE Ls Rs
    Sampling rate               : 48.0 kHz
    Frame rate                  : 31.250 FPS (1536 SPF)
    Compression mode            : Lossy
    Delay relative to video     : -5 ms
    Stream size                 : 470 MiB (14%)
    Language                    : English
    Service kind                : Complete Main
    Default                     : No
    Forced                      : No

    Text
    ID                          : 4
    Format                      : UTF-8
    Codec ID                    : S_TEXT/UTF8
    Codec ID/Info               : UTF-8 Plain Text
    Duration                    : 1 h 41 min
    Bit rate                    : 42 b/s
    Count of elements           : 921
    Stream size                 : 32.0 KiB (0%)
    Language                    : Spanish
    Default                     : No
    Forced                      : No

    Menu
    00:00:00.000                : :Chapter 1
    00:10:26.376                : :Chapter 2
    00:20:54.628                : :Chapter 3
    00:31:15.290                : :Chapter 4
    00:40:58.498                : :Chapter 5
    00:50:50.714                : :Chapter 6
    01:00:05.435                : :Chapter 7
    01:09:51.813                : :Chapter 8
    01:19:51.245                : :Chapter 9
    01:31:07.295                : :Chapter 10
    01:33:57.132                : :Chapter 11

  • Peso: 3.23 GiB

Sinopsis

La historia se ambienta en el año 490 a.C., unos diez años antes de la batalla de las Termópilas. El general griego Temistocles intenta unir las polis griegas para combatir a los persas invasores. Él dirigirá las tropas griegas que se enfrentarán con los persas en la decisiva batalla de Maratón. La derrota persa impedirá la invasión del país.

Ficha técnica

Video trailer de la película

Enlaces de descarga

Rip de Bluray

Descargar 300 El origen de un imperio (2014) HD 1080p Latino – CMHDD




Aportes de DPeliculasHDmega la pass es:dpeliculashdmega.org Aportes de CinemaniaHD la pass es:cinemaniahdd.com
Guardado en : Acción , Bélica , Fantasía , HD 1080p

Películas relacionadas

descargar 300 El origen de un imperio (2014) HD 1080p Latino – CMHDD 1080p 1080p gratis, 300 El origen de un imperio (2014) HD 1080p Latino – CMHDD 1080p mega 1 link, 300 El origen de un imperio (2014) HD 1080p Latino – CMHDD 1080p pelicula completa, descargar 300 El origen de un imperio (2014) HD 1080p Latino – CMHDD 1080p gratis en mega.

300 El origen de un imperio (2014) HD 1080p Latino – CMHDD pelicula full hd, 300 El origen de un imperio (2014) HD 1080p Latino – CMHDD mega latino, 300 El origen de un imperio (2014) HD 1080p Latino – CMHDD 4k latino, 300 El origen de un imperio (2014) HD 1080p Latino – CMHDD pelicula completa, 300 El origen de un imperio (2014) HD 1080p Latino – CMHDD descargar gratis, descargar 300 El origen de un imperio (2014) HD 1080p Latino – CMHDD pelicula latino, 300 El origen de un imperio (2014) HD 1080p Latino – CMHDD 1 link mega, 300 El origen de un imperio (2014) HD 1080p Latino – CMHDD 1 link google drive, 300 El origen de un imperio (2014) HD 1080p Latino – CMHDD hd 1080p latino.
Comentarios 0