300 (2006) HD 1080p Latino – CMHDD

215 vistas
1 estrella2 estrellas3 estrellas4 estrellas5 estrellas (Ninguna valoración todavía)
Cargando...

Información de 300 (2006) HD 1080p Latino – CMHDD

Datos de la película

  • Calidad: 1080p
  • Audio: Español Latino AC3 5.1 BLURAY - Ingles AC3 5.1 BLURAY
  • Subtitulos: Español Latino SRT
  • Resolución: 1920x1800p
  • Formato: MKV
  • Codec: H.264
  • Encoder: Dracarys
  • Mediainfo: Clic para Mostrar Datos Ver
  • Format                      : Matroska
    Format version              : Version 4
    File size                   : 3.84 GiB
    Duration                    : 1 h 56 min
    Overall bit rate            : 4 718 kb/s
    Movie name                  : 300 (2006) HD 1080p Latino - CMHDD
    Encoded date                : UTC 2020-07-16 00:48:16
    Writing application         : mkvmerge v46.0.0 ('No Deeper Escape') 64-bit
    Writing library             : libebml v1.3.10 + libmatroska v1.5.2

    Video
    ID                          : 1
    Format                      : AVC
    Format/Info                 : Advanced Video Codec
    Format profile              : High@L4.1
    Format settings             : CABAC / 5 Ref Frames
    Format settings, CABAC      : Yes
    Format settings, Reference  : 5 frames
    Codec ID                    : V_MPEG4/ISO/AVC
    Duration                    : 1 h 56 min
    Bit rate                    : 3 500 kb/s
    Width                       : 1 920 pixels
    Height                      : 800 pixels
    Display aspect ratio        : 2.40:1
    Frame rate mode             : Constant
    Frame rate                  : 23.976 (24000/1001) FPS
    Color space                 : YUV
    Chroma subsampling          : 4:2:0
    Bit depth                   : 8 bits
    Scan type                   : Progressive
    Bits/(Pixel*Frame)          : 0.095
    Stream size                 : 2.79 GiB (73%)
    Writing library             : x264 core 157 r2935 545de2f
    Encoding settings           : cabac=1 / ref=5 / deblock=1:0:0 / analyse=0x3:0x113 / me=hex / subme=8 / psy=1 / psy_rd=1.00:0.00 / mixed_ref=1 / me_range=16 / chroma_me=1 / trellis=2 / 8x8dct=1 / cqm=0 / deadzone=21,11 / fast_pskip=1 / chroma_qp_offset=-2 / threads=24 / lookahead_threads=4 / sliced_threads=0 / nr=0 / decimate=1 / interlaced=0 / bluray_compat=0 / constrained_intra=0 / bframes=3 / b_pyramid=2 / b_adapt=1 / b_bias=0 / direct=3 / weightb=1 / open_gop=0 / weightp=2 / keyint=240 / keyint_min=24 / scenecut=40 / intra_refresh=0 / rc_lookahead=50 / rc=abr / mbtree=1 / bitrate=3500 / ratetol=1.0 / qcomp=0.60 / qpmin=0 / qpmax=69 / qpstep=4 / vbv_maxrate=62500 / vbv_bufsize=78125 / nal_hrd=none / filler=0 / ip_ratio=1.40 / aq=1:1.00
    Default                     : Yes
    Forced                      : No
    Color range                 : Limited
    Color primaries             : BT.709
    Transfer characteristics    : BT.709
    Matrix coefficients         : BT.709

    Audio #1
    ID                          : 2
    Format                      : AC-3
    Format/Info                 : Audio Coding 3
    Commercial name             : Dolby Digital
    Codec ID                    : A_AC3
    Duration                    : 1 h 56 min
    Bit rate mode               : Constant
    Bit rate                    : 640 kb/s
    Channel(s)                  : 6 channels
    Channel layout              : L R C LFE Ls Rs
    Sampling rate               : 48.0 kHz
    Frame rate                  : 31.250 FPS (1536 SPF)
    Compression mode            : Lossy
    Stream size                 : 533 MiB (14%)
    Language                    : Spanish
    Service kind                : Complete Main
    Default                     : Yes
    Forced                      : No

    Audio #2
    ID                          : 3
    Format                      : AC-3
    Format/Info                 : Audio Coding 3
    Commercial name             : Dolby Digital
    Codec ID                    : A_AC3
    Duration                    : 1 h 56 min
    Bit rate mode               : Constant
    Bit rate                    : 640 kb/s
    Channel(s)                  : 6 channels
    Channel layout              : L R C LFE Ls Rs
    Sampling rate               : 48.0 kHz
    Frame rate                  : 31.250 FPS (1536 SPF)
    Compression mode            : Lossy
    Stream size                 : 533 MiB (14%)
    Language                    : English
    Service kind                : Complete Main
    Default                     : No
    Forced                      : No

    Text #1
    ID                          : 4
    Format                      : UTF-8
    Codec ID                    : S_TEXT/UTF8
    Codec ID/Info               : UTF-8 Plain Text
    Duration                    : 1 h 55 min
    Bit rate                    : 40 b/s
    Count of elements           : 965
    Stream size                 : 34.4 KiB (0%)
    Language                    : Spanish
    Default                     : No
    Forced                      : No

    Text #2
    ID                          : 5
    Format                      : PGS
    Muxing mode                 : zlib
    Codec ID                    : S_HDMV/PGS
    Codec ID/Info               : Picture based subtitle format used on BDs/HD-DVDs
    Duration                    : 1 h 55 min
    Bit rate                    : 23.2 kb/s
    Count of elements           : 1928
    Stream size                 : 19.2 MiB (0%)
    Language                    : Spanish
    Default                     : Yes
    Forced                      : No

    Menu
    00:00:00.000                : :Chapter 1
    00:05:16.983                : :Chapter 2
    00:10:23.289                : :Chapter 3
    00:13:16.796                : :Chapter 4
    00:16:52.178                : :Chapter 5
    00:19:44.350                : :Chapter 6
    00:22:28.347                : :Chapter 7
    00:27:03.622                : :Chapter 8
    00:29:16.255                : :Chapter 9
    00:33:17.829                : :Chapter 10
    00:35:06.771                : :Chapter 11
    00:37:49.434                : :Chapter 12
    00:40:46.277                : :Chapter 13
    00:44:10.314                : :Chapter 14
    00:49:17.288                : :Chapter 15
    00:52:46.330                : :Chapter 16
    00:55:33.664                : :Chapter 17
    01:01:40.864                : :Chapter 18
    01:05:20.750                : :Chapter 19
    01:08:42.952                : :Chapter 20
    01:12:43.192                : :Chapter 21
    01:15:50.379                : :Chapter 22
    01:18:38.380                : :Chapter 23
    01:22:20.936                : :Chapter 24
    01:26:43.532                : :Chapter 25
    01:29:11.513                : :Chapter 26
    01:33:59.217                : :Chapter 27
    01:38:54.595                : :Chapter 28
    01:43:26.200                : :Chapter 29
    01:49:03.537                : :Chapter 30

  • Peso: 3.84 GiB

Sinopsis

Adaptación del cómic de Frank Miller (autor del cómic ‘Sin City’) sobre la famosa batalla de las Termópilas (480 a.C.). El objetivo de Jerjes, emperador de Persia, era la conquista de Grecia, lo que desencadenó las Guerras Médicas. Dada la gravedad de la situación, el rey Leónidas de Esparta (Gerard Butler) y 300 espartanos se enfrentaron a un ejército persa que era inmensamente superior.

Ficha técnica

Video trailer de la película

Enlaces de descarga

Rip de Bluray

Descargar 300 (2006) HD 1080p Latino – CMHDD




Aportes de DPeliculasHDmega la pass es:dpeliculashdmega.org Aportes de CinemaniaHD la pass es:cinemaniahdd.com
Guardado en : Acción , Aventura , Bélica , HD 1080p

Películas relacionadas

  • Nadie (2021) REMUX 1080p Latino

    Nadie (2021) REMUX 1080p Latino

    2021
    Nadie (2021) REMUX 1080p Latino

    5.0 1h 32m 2021

    Descargar Nadie (2021) REMUX 1080p Latino. Hutch Mansell, un padre de familia que aguanta con resignación...

    Director: Ilya Naishuller

    Género: Acción

    Actores: Yulia Guzhva

  • Ruega por nosotros (2021) HD 1080p Latino

    Ruega por nosotros (2021) HD 1080p Latino

    2021
    Ruega por nosotros (2021) HD 1080p Latino

    5.0 1h 39m 2021

    Descargar Ruega por nosotros (2021) HD 1080p Latino. Se centra en un periodista caído en desgracia que...

    Director: Evan Spiliotopoulos

    Género: HD 1080p

    Actores: William Sadler

  • Godzilla vs Kong (2021) REMUX 4K HDR Latino – CMHDD

    Godzilla vs Kong (2021) REMUX 4K HDR Latino – CMHDD

    2021
    Godzilla vs Kong (2021) REMUX 4K HDR Latino – CMHDD

    5.0 1h 53m 2021

    Godzilla y Kong, dos de las fuerzas más poderosas de un planeta habitado por todo tipo de aterradoras...

    Director: Thomas Robinson Harper

    Género: Acción

    Actores: Victoria Liu

300 (2006) HD 1080p Latino – CMHDD pelicula full hd, 300 (2006) HD 1080p Latino – CMHDD mega latino, 300 (2006) HD 1080p Latino – CMHDD 4k latino, 300 (2006) HD 1080p Latino – CMHDD pelicula completa, 300 (2006) HD 1080p Latino – CMHDD descargar gratis, descargar 300 (2006) HD 1080p Latino – CMHDD pelicula latino, 300 (2006) HD 1080p Latino – CMHDD 1 link mega, 300 (2006) HD 1080p Latino – CMHDD 1 link google drive, 300 (2006) HD 1080p Latino – CMHDD hd 1080p latino.
Comentarios 0