300 (2006) Full HD 1080p Latino – CMHDD

281 vistas
1 estrella2 estrellas3 estrellas4 estrellas5 estrellas (Ninguna valoración todavía)
Cargando...

Información de 300 (2006) Full HD 1080p Latino – CMHDD

Datos de la película

  • Calidad: Full 1080p
  • Audio: Español Latino AC3 5.1 BLURAY - Ingles DTS 5.1 BLURAY
  • Subtitulos: Español Latino SRT
  • Resolución: 1920x1080p
  • Formato: MKV
  • Codec: H.264
  • Encoder: Dracarys
  • Mediainfo: Clic para Mostrar Datos Ver
  • Format                      : Matroska
    Format version              : Version 4
    File size                   : 11.4 GiB
    Duration                    : 1 h 56 min
    Overall bit rate            : 14.0 Mb/s
    Movie name                  : 300 (2006) Full HD 1080p Latino - CMHDD
    Encoded date                : UTC 2020-07-16 00:49:30 / UTC 2017-11-10T14:31:57Z
    Writing application         : mkvmerge v46.0.0 ('No Deeper Escape') 64-bit
    Writing library             : libebml v1.3.10 + libmatroska v1.5.2 / Lavf57.7.2

    Video
    ID                          : 1
    Format                      : AVC
    Format/Info                 : Advanced Video Codec
    Format profile              : High@L4.1
    Format settings             : CABAC / 4 Ref Frames
    Format settings, CABAC      : Yes
    Format settings, Reference  : 4 frames
    Codec ID                    : V_MPEG4/ISO/AVC
    Duration                    : 1 h 56 min
    Bit rate                    : 11.6 Mb/s
    Width                       : 1 920 pixels
    Height                      : 1 080 pixels
    Display aspect ratio        : 16:9
    Frame rate mode             : Constant
    Frame rate                  : 23.976 (24000/1001) FPS
    Color space                 : YUV
    Chroma subsampling          : 4:2:0
    Bit depth                   : 8 bits
    Scan type                   : Progressive
    Bits/(Pixel*Frame)          : 0.234
    Stream size                 : 9.47 GiB (83%)
    Writing library             : x264 core 148 r2708 86b7198
    Encoding settings           : cabac=1 / ref=4 / deblock=1:0:0 / analyse=0x3:0x133 / me=esa / subme=10 / psy=1 / psy_rd=1.00:0.00 / mixed_ref=1 / me_range=24 / chroma_me=1 / trellis=2 / 8x8dct=1 / cqm=0 / deadzone=21,11 / fast_pskip=1 / chroma_qp_offset=-2 / threads=34 / lookahead_threads=5 / sliced_threads=0 / nr=0 / decimate=1 / interlaced=0 / bluray_compat=0 / constrained_intra=0 / bframes=8 / b_pyramid=2 / b_adapt=2 / b_bias=0 / direct=3 / weightb=1 / open_gop=0 / weightp=2 / keyint=240 / keyint_min=24 / scenecut=40 / intra_refresh=0 / rc_lookahead=60 / rc=crf / mbtree=1 / crf=20.0 / qcomp=0.60 / qpmin=0 / qpmax=69 / qpstep=4 / vbv_maxrate=62500 / vbv_bufsize=78125 / crf_max=0.0 / nal_hrd=none / filler=0 / ip_ratio=1.40 / aq=1:1.00
    Language                    : English
    Default                     : Yes
    Forced                      : No
    Color range                 : Limited
    Color primaries             : BT.709
    Transfer characteristics    : BT.709
    Matrix coefficients         : BT.709
    Statistics Tags Issue       : mkvmerge v46.0.0 ('No Deeper Escape') 64-bit 2020-07-16 00:49:30 / mkvmerge v46.0.0 ('No Deeper Escape') 64-bit 2020-07-16 00:49:30 / UTC 2017-11-10T14:31:57Z
    FromStats_BitRate           : 11894778
    FromStats_Duration          : 01:56:32.528000000
    FromStats_FrameCount        : 167653
    FromStats_StreamSize        : 10396821185
    Duration_Source             : General_Duration

    Audio #1
    ID                          : 2
    Format                      : AC-3
    Format/Info                 : Audio Coding 3
    Commercial name             : Dolby Digital
    Codec ID                    : A_AC3
    Duration                    : 1 h 56 min
    Bit rate mode               : Constant
    Bit rate                    : 640 kb/s
    Channel(s)                  : 6 channels
    Channel layout              : L R C LFE Ls Rs
    Sampling rate               : 48.0 kHz
    Frame rate                  : 31.250 FPS (1536 SPF)
    Compression mode            : Lossy
    Stream size                 : 534 MiB (5%)
    Language                    : Spanish
    Service kind                : Complete Main
    Default                     : Yes
    Forced                      : No
    Statistics Tags Issue       : mkvmerge v46.0.0 ('No Deeper Escape') 64-bit 2020-07-16 00:49:30 / mkvmerge v46.0.0 ('No Deeper Escape') 64-bit 2020-07-16 00:49:30 / UTC 2017-11-10T14:31:57Z
    FromStats_BitRate           : 640000
    FromStats_Duration          : 01:56:32.544000000
    FromStats_FrameCount        : 218517
    FromStats_StreamSize        : 559403520
    Duration_Source             : General_Duration

    Audio #2
    ID                          : 3
    Format                      : DTS
    Format/Info                 : Digital Theater Systems
    Codec ID                    : A_DTS
    Duration                    : 1 h 56 min
    Bit rate mode               : Constant
    Bit rate                    : 1 509 kb/s
    Channel(s)                  : 6 channels
    Channel layout              : C L R Ls Rs LFE
    Sampling rate               : 48.0 kHz
    Frame rate                  : 93.750 FPS (512 SPF)
    Bit depth                   : 24 bits
    Compression mode            : Lossy
    Stream size                 : 1.23 GiB (11%)
    Language                    : English
    Default                     : No
    Forced                      : No
    Statistics Tags Issue       : mkvmerge v46.0.0 ('No Deeper Escape') 64-bit 2020-07-16 00:49:30 / mkvmerge v46.0.0 ('No Deeper Escape') 64-bit 2020-07-16 00:49:30 / UTC 2017-11-10T14:31:57Z
    FromStats_BitRate           : 1509000
    FromStats_Duration          : 01:56:38.816000000
    FromStats_FrameCount        : 656139
    FromStats_StreamSize        : 1320151668
    Duration_Source             : General_Duration

    Text #1
    ID                          : 4
    Format                      : UTF-8
    Codec ID                    : S_TEXT/UTF8
    Codec ID/Info               : UTF-8 Plain Text
    Language                    : Spanish
    Default                     : No
    Forced                      : No
    Statistics Tags Issue       : mkvmerge v46.0.0 ('No Deeper Escape') 64-bit 2020-07-16 00:49:30 / mkvmerge v46.0.0 ('No Deeper Escape') 64-bit 2020-07-16 00:49:30 / UTC 2017-11-10T14:31:57Z
    FromStats_BitRate           : 40
    FromStats_Duration          : 01:55:20.830000000
    FromStats_FrameCount        : 965
    FromStats_StreamSize        : 35175

    Text #2
    ID                          : 5
    Format                      : PGS
    Muxing mode                 : zlib
    Codec ID                    : S_HDMV/PGS
    Codec ID/Info               : Picture based subtitle format used on BDs/HD-DVDs
    Language                    : Spanish
    Default                     : No
    Forced                      : No
    Statistics Tags Issue       : mkvmerge v46.0.0 ('No Deeper Escape') 64-bit 2020-07-16 00:49:30 / mkvmerge v46.0.0 ('No Deeper Escape') 64-bit 2020-07-16 00:49:30 / UTC 2017-11-10T14:31:57Z
    FromStats_BitRate           : 23268
    FromStats_Duration          : 01:55:20.831000000
    FromStats_FrameCount        : 1930
    FromStats_StreamSize        : 20129560

    Menu
    00:00:00.000                : :Spartan Education
    00:05:16.983                : :Messenger From Persia
    00:10:23.289                : :Sparta's Reply
    00:13:16.796                : :The Ephors
    00:16:52.178                : :The Oracle
    00:19:44.350                : :What Should a Free Man Do?
    00:22:28.347                : :With or on Your Shield
    00:27:03.622                : :More Soldiers Than You
    00:29:16.255                : :Hunters of Men's Souls
    00:33:17.829                : :Glorious Rain
    00:35:06.771                : :Fraction of the Monster
    00:37:49.434                : :Wall of the Dead
    00:40:46.277                : :Ephialtes' Request
    00:44:10.314                : :Hot Gates Battle
    00:49:17.288                : :Today No Spartan Dies
    00:52:46.330                : :Make Theron Your Ally
    00:55:33.664                : :Meeting Xerxes
    01:01:40.864                : :Immortals Put to the Test
    01:05:20.750                : :Uber Immortal's Fall
    01:08:42.952                : :Numbers Count for Nothing
    01:12:43.192                : :Blood-Drunk
    01:15:50.379                : :Betrayer's Bargain
    01:18:38.380                : :Queen's Bargain
    01:22:20.936                : :Prepare for Glory
    01:26:43.532                : :Tell Them Our Story
    01:29:11.513                : :Trickster in True Form
    01:33:59.217                : :Victory in Surrender
    01:38:54.595                : :Fallen Heroes
    01:43:26.200                : :Go Tell the Spartans
    01:49:03.537                : :End Credits

  • Peso: 11.4 GiB

Sinopsis

Adaptación del cómic de Frank Miller (autor del cómic ‘Sin City’) sobre la famosa batalla de las Termópilas (480 a.C.). El objetivo de Jerjes, emperador de Persia, era la conquista de Grecia, lo que desencadenó las Guerras Médicas. Dada la gravedad de la situación, el rey Leónidas de Esparta (Gerard Butler) y 300 espartanos se enfrentaron a un ejército persa que era inmensamente superior.

Ficha técnica

Video trailer de la película

Enlaces de descarga

Rip de Bluray

Descargar 300 (2006) Full HD 1080p Latino – CMHDD




Aportes de DPeliculasHDmega la pass es:dpeliculashdmega.org Aportes de CinemaniaHD la pass es:cinemaniahdd.com

Películas relacionadas

300 (2006) Full HD 1080p Latino – CMHDD pelicula full hd, 300 (2006) Full HD 1080p Latino – CMHDD mega latino, 300 (2006) Full HD 1080p Latino – CMHDD 4k latino, 300 (2006) Full HD 1080p Latino – CMHDD pelicula completa, 300 (2006) Full HD 1080p Latino – CMHDD descargar gratis, descargar 300 (2006) Full HD 1080p Latino – CMHDD pelicula latino, 300 (2006) Full HD 1080p Latino – CMHDD 1 link mega, 300 (2006) Full HD 1080p Latino – CMHDD 1 link google drive, 300 (2006) Full HD 1080p Latino – CMHDD hd 1080p latino.
Comentarios 1
  • ocpgaiden - 26 agosto, 2020

    Gracias y saludos