×

¿Problemas para descargar con Mozilla, EDGE? Deshabilita la opción "Abrir vinculos en una pestaña nueva" tal como lo muestra ésta imagen.

Harry Potter y el prisionero de Azkaban (2004) REMUX 1080p Latino

588 vistas

Información de Harry Potter y el prisionero de Azkaban (2004) REMUX 1080p Latino

Datos de la película

  • Calidad: Full 1080p
  • Audio: Español Latino AC3 5.1 BLURAY - Ingles AC3 5.1 BLURAY
  • Subtitulos: Español Latino SRT- FORZADOS SRT
  • Resolución: 1920x1080p
  • Formato: MKV
  • Codec: H.264
  • Encoder: Dracarys
  • Mediainfo: Clic para Mostrar Datos Ver
  • Format                      : Matroska
    Format version              : Version 4
    File size                   : 24.9 GiB
    Duration                    : 2 h 21 min
    Overall bit rate            : 25.2 Mb/s
    Movie name                  : CinemaniaHDD.net
    Encoded date                : UTC 2020-04-27 00:05:08
    Writing application         : mkvmerge v38.0.0 ('The Silent Type') 64-bit
    Writing library             : libebml v1.3.9 + libmatroska v1.5.2

    Video
    ID                          : 1
    Format                      : VC-1
    Format profile              : Advanced@L3
    Codec ID                    : V_MS/VFW/FOURCC / WVC1
    Codec ID/Hint               : Microsoft
    Duration                    : 2 h 21 min
    Bit rate                    : 19.3 Mb/s
    Width                       : 1 920 pixels
    Height                      : 1 080 pixels
    Display aspect ratio        : 16:9
    Frame rate mode             : Constant
    Frame rate                  : 23.976 (24000/1001) FPS
    Color space                 : YUV
    Chroma subsampling          : 4:2:0
    Bit depth                   : 8 bits
    Scan type                   : Progressive
    Compression mode            : Lossy
    Bits/(Pixel*Frame)          : 0.388
    Stream size                 : 19.1 GiB (77%)
    Language                    : English
    Default                     : Yes
    Forced                      : No

    Audio #1
    ID                          : 2
    Format                      : AC-3
    Format/Info                 : Audio Coding 3
    Commercial name             : Dolby Digital
    Codec ID                    : A_AC3
    Duration                    : 2 h 21 min
    Bit rate mode               : Constant
    Bit rate                    : 640 kb/s
    Channel(s)                  : 6 channels
    Channel layout              : L R C LFE Ls Rs
    Sampling rate               : 48.0 kHz
    Frame rate                  : 31.250 FPS (1536 SPF)
    Bit depth                   : 16 bits
    Compression mode            : Lossy
    Stream size                 : 649 MiB (3%)
    Title                       : ACE
    Language                    : Spanish
    Service kind                : Complete Main
    Default                     : Yes
    Forced                      : No

    Audio #2
    ID                          : 3
    Format                      : PCM
    Format settings             : Little / Signed
    Codec ID                    : A_PCM/INT/LIT
    Duration                    : 2 h 21 min
    Bit rate mode               : Constant
    Bit rate                    : 4 608 kb/s
    Channel(s)                  : 6 channels
    Sampling rate               : 48.0 kHz
    Frame rate                  : 32.000 FPS (1500 SPF)
    Bit depth                   : 16 bits
    Stream size                 : 4.56 GiB (18%)
    Title                       : PCM
    Language                    : English
    Default                     : No
    Forced                      : No

    Audio #3
    ID                          : 4
    Format                      : AC-3
    Format/Info                 : Audio Coding 3
    Commercial name             : Dolby Digital
    Codec ID                    : A_AC3
    Duration                    : 2 h 21 min
    Bit rate mode               : Constant
    Bit rate                    : 640 kb/s
    Channel(s)                  : 6 channels
    Channel layout              : L R C LFE Ls Rs
    Sampling rate               : 48.0 kHz
    Frame rate                  : 31.250 FPS (1536 SPF)
    Bit depth                   : 16 bits
    Compression mode            : Lossy
    Stream size                 : 649 MiB (3%)
    Title                       : AC3
    Language                    : English
    Service kind                : Complete Main
    Default                     : No
    Forced                      : No

    Text #1
    ID                          : 5
    Format                      : UTF-8
    Codec ID                    : S_TEXT/UTF8
    Codec ID/Info               : UTF-8 Plain Text
    Duration                    : 38 min 45 s
    Bit rate                    : 0 b/s
    Count of elements           : 6
    Stream size                 : 162 Bytes (0%)
    Title                       : SRT-Forzados
    Language                    : Spanish
    Default                     : Yes
    Forced                      : No

    Text #2
    ID                          : 6
    Format                      : UTF-8
    Codec ID                    : S_TEXT/UTF8
    Codec ID/Info               : UTF-8 Plain Text
    Duration                    : 2 h 20 min
    Bit rate                    : 48 b/s
    Count of elements           : 1392
    Stream size                 : 50.0 KiB (0%)
    Title                       : SRT-Completos
    Language                    : Spanish
    Default                     : No
    Forced                      : No

    Text #3
    ID                          : 7
    Format                      : PGS
    Muxing mode                 : zlib
    Codec ID                    : S_HDMV/PGS
    Codec ID/Info               : Picture based subtitle format used on BDs/HD-DVDs
    Duration                    : 2 h 20 min
    Bit rate                    : 26.6 kb/s
    Count of elements           : 2804
    Stream size                 : 26.8 MiB (0%)
    Title                       : PGS-Completos
    Language                    : Spanish
    Default                     : No
    Forced                      : No

    Menu
    00:00:00.000                : en:Under Covers Prologue
    00:01:40.100                : en:Aunt Marge's Big Mistake
    00:06:36.229                : en:The Knight Bus
    00:12:45.932                : en:The Leaky Cauldron
    00:14:52.517                : en:The Monster Book of Monsters
    00:16:12.513                : en:In Grave Danger
    00:18:56.218                : en:The Dementor
    00:23:50.387                : en:Welcome and Warning
    00:28:50.729                : en:Tea Leaves
    00:31:21.838                : en:Backbeak
    00:38:50.161                : en:Boggart in the Wardrobe
    00:44:45.308                : en:Talent for Trouble
    00:47:37.813                : en:Flight of the Fat Lady
    00:49:39.935                : en:Substitute Teacher
    00:53:42.845                : en:Grim Defeat
    00:57:28.403                : en:The Marauder's Map
    01:01:23.722                : en:Who's There?
    01:03:22.924                : en:I Hope He Finds Me
    01:07:10.985                : en:The Patronus
    01:11:53.476                : en:Seeing the Impossible
    01:19:10.079                : en:Professor Trelarney's Prediction
    01:22:29.945                : en:Witness to an Execution
    01:27:30.871                : en:The Whomping Willow
    01:30:13.366                : en:Sirius Black
    01:34:19.028                : en:Peter Pettigrew
    01:36:56.894                : en:Friends Become Foes
    01:42:24.472                : en:The Dementor's Kiss
    01:45:40.334                : en:Hermione's Secret
    01:50:03.597                : en:Onlookers to the Rescue
    01:55:33.343                : en:Saving Lives
    02:00:07.409                : en:Truly Seen, Truly Free
    02:03:16.055                : en:Two Places at Once
    02:06:02.513                : en:Mischief Managed
    02:08:42.924                : en:The Firebolt
    02:09:47.405                : en:End Credits Map
     

  • Peso: 24.9 GiB

Sinopsis

Harry está deseando que termine el verano para comenzar un nuevo curso en Hogwarts, y abandonar lo antes posible la casa de sus despreciables tíos, los Dursley. Lo que desconoce Harry es que va a tener que abandonar Privet Drive antes de tiempo e inesperadamente después de convertir a su tía Marge en un globo gigante. Un autobús noctámbulo, y encantado por supuesto, le llevará a la taberna El Caldero Chorreante, donde le espera nada menos que Cornelius Fudge, el Ministro de Magia.

Ficha técnica

Video trailer de la película

Enlaces de descarga

Rip de Bluray

Descargar Harry Potter y el prisionero de Azkaban (2004) REMUX 1080p Latino




Aportes de DPeliculasHDmega la pass es:dpeliculashdmega.org Aportes de CinemaniaHD la pass es:cinemaniahdd.com
Guardado en : Aventura , Fantasía , Remux

Películas relacionadas

  • Wire Room (2022) REMUX 1080p Latino

    Wire Room (2022) REMUX 1080p Latino

    2022
    Wire Room (2022) REMUX 1080p Latino

    1h 37m 2022

    Descargar Wire Room (2022) REMUX 1080p Latino. Mientras está de servicio en la sala de cables, un agente...

    Director: Matt Eskandari

    Género: Acción

    Actores: Texas Battle

  • Alarido (2022) REMUX 1080p Latino

    Alarido (2022) REMUX 1080p Latino

    2022
    Alarido (2022) REMUX 1080p Latino

    1h 29m 2022

    Descargar Alarido (2022) REMUX 1080p Latino. Una joven madre soltera es cautiva junto con sus dos hijos...

    Director: D.J. Caruso

    Género: Remux

    Actores: Vincent Gallo

  • El Cuartel Secreto (2022) WEB-DL 4K UHD HDR Latino

    El Cuartel Secreto (2022) WEB-DL 4K UHD HDR Latino

    2022
    El Cuartel Secreto (2022) WEB-DL 4K UHD HDR Latino

    1h 44m 2022

    Descargar El Cuartel Secreto (2022) WEB-DL 4K UHD HDR Latino. Mientras pasan el rato después de la escuela,...

    Director: Henry Joost

    Género: 4K HDR

    Actores: Zeb Slone

  • El Cuartel Secreto (2022) WEB-DL 1080p Latino

    El Cuartel Secreto (2022) WEB-DL 1080p Latino

    2022
    El Cuartel Secreto (2022) WEB-DL 1080p Latino

    1h 44m 2022

    Descargar El Cuartel Secreto (2022) WEB-DL 1080p Latino. Mientras pasan el rato después de la escuela,...

    Director: Henry Joost

    Género: Acción

    Actores: Zeb Slone

  • Men in Black (1997) REMUX 4K HDR Latino – CMHDD

    Men in Black (1997) REMUX 4K HDR Latino – CMHDD

    1997
    Men in Black (1997) REMUX 4K HDR Latino – CMHDD

    1h 34m 1997

    Durante muchos años los extraterrestres han vivido en la Tierra, mezclados con los humanos, sin que...

    Director: Tyrone S. Walker

    Género: Acción

    Actores: Willie C. Carpenter

descargar Harry Potter y el prisionero de Azkaban (2004) REMUX 1080p Latino Full 1080p 1080p gratis, Harry Potter y el prisionero de Azkaban (2004) REMUX 1080p Latino Full 1080p mega 1 link, Harry Potter y el prisionero de Azkaban (2004) REMUX 1080p Latino Full 1080p pelicula completa, descargar Harry Potter y el prisionero de Azkaban (2004) REMUX 1080p Latino Full 1080p gratis en mega.

Harry Potter y el prisionero de Azkaban (2004) REMUX 1080p Latino pelicula full hd, Harry Potter y el prisionero de Azkaban (2004) REMUX 1080p Latino mega latino, Harry Potter y el prisionero de Azkaban (2004) REMUX 1080p Latino 4k latino, Harry Potter y el prisionero de Azkaban (2004) REMUX 1080p Latino pelicula completa, Harry Potter y el prisionero de Azkaban (2004) REMUX 1080p Latino descargar gratis, descargar Harry Potter y el prisionero de Azkaban (2004) REMUX 1080p Latino pelicula latino, Harry Potter y el prisionero de Azkaban (2004) REMUX 1080p Latino 1 link mega, Harry Potter y el prisionero de Azkaban (2004) REMUX 1080p Latino 1 link google drive, Harry Potter y el prisionero de Azkaban (2004) REMUX 1080p Latino hd 1080p latino.
Comentarios 4
  • Martin - 08 mayo, 2020

    La calidad de imagen esta super, pero no se escucha el audio

    • Dracarys - 19 mayo, 2020

      si tiene audio

  • Diego - 03 mayo, 2020

    Hola, la descargue y la puse a 60fps y se ve excelente… una consulta, alguna vez podrás subir el señor de los anillos en en remux?

    Saludos.

    • Dracarys - 19 mayo, 2020

      se viene pronto