×

¿Problemas para descargar con Mozilla, EDGE? Deshabilita la opción "Abrir vinculos en una pestaña nueva" tal como lo muestra ésta imagen.

Los 3 del Infierno (2019) Full HD 1080p Latino

1.290 vistas

Información de Los 3 del Infierno (2019) Full HD 1080p Latino

Datos de la película

  • Calidad: Full 1080p
  • Audio: Español Latino AC3 2.0 iTUNES - Ingles AC3 5.1 BLURAY
  • Subtitulos: Español Latino PGS - Ingles PGS
  • Resolución: 1920x1080p
  • Formato: MKV
  • Codec: H.264
  • Encoder: CinefiloCool
  • Mediainfo: Clic para Mostrar Datos Ver
  • Los 3 del Infierno (2019) Full HD 1080p Latino-CMHDD.mkv
    Format                      : Matroska
    Format version              : Version 4
    File size                   : 18.2 GiB
    Duration                    : 1 h 55 min
    Overall bit rate            : 22.5 Mb/s
    Movie name                  : 3 From Hell (2019) CinemaniaHDD.Net
    Encoded date                : UTC 2019-10-21 18:14:27
    Writing application         : mkvmerge v38.0.0 ('The Silent Type') 64-bit
    Writing library             : libebml v1.3.9 + libmatroska v1.5.2
    Attachments                 : CINEMANIAHD.png

    Video
    ID                          : 1
    Format                      : AVC
    Format/Info                 : Advanced Video Codec
    Format profile              : High@L4.1
    Format settings             : CABAC / 4 Ref Frames
    Format settings, CABAC      : Yes
    Format settings, ReFrames   : 4 frames
    Codec ID                    : V_MPEG4/ISO/AVC
    Duration                    : 1 h 55 min
    Bit rate                    : 21.5 Mb/s
    Width                       : 1 920 pixels
    Height                      : 1 080 pixels
    Display aspect ratio        : 16:9
    Frame rate mode             : Constant
    Frame rate                  : 23.976 (24000/1001) FPS
    Color space                 : YUV
    Chroma subsampling          : 4:2:0
    Bit depth                   : 8 bits
    Scan type                   : Progressive
    Bits/(Pixel*Frame)          : 0.433
    Stream size                 : 17.4 GiB (96%)
    Title                       : Full HD1080p [Bluray]
    Writing library             : x264 core 157 r2935 545de2f
    Encoding settings           : cabac=1 / ref=4 / deblock=1:-1:-1 / analyse=0x3:0x133 / me=tesa / subme=11 / psy=1 / psy_rd=1.00:0.15 / mixed_ref=1 / me_range=24 / chroma_me=1 / trellis=2 / 8x8dct=1 / cqm=0 / deadzone=21,11 / fast_pskip=0 / chroma_qp_offset=-3 / threads=34 / lookahead_threads=8 / sliced_threads=0 / nr=0 / decimate=1 / interlaced=0 / bluray_compat=0 / constrained_intra=0 / bframes=16 / b_pyramid=2 / b_adapt=2 / b_bias=0 / direct=3 / weightb=1 / open_gop=0 / weightp=2 / keyint=240 / keyint_min=24 / scenecut=40 / intra_refresh=0 / rc_lookahead=60 / rc=crf / mbtree=1 / crf=20.0 / qcomp=0.60 / qpmin=0 / qpmax=69 / qpstep=4 / vbv_maxrate=62500 / vbv_bufsize=78125 / crf_max=0.0 / nal_hrd=none / filler=0 / ip_ratio=1.40 / aq=1:1.00
    Default                     : Yes
    Forced                      : No
    Color range                 : Limited
    Color primaries             : BT.709
    Transfer characteristics    : BT.709
    Matrix coefficients         : BT.709

    Audio #1
    ID                          : 2
    Format                      : AC-3
    Format/Info                 : Audio Coding 3
    Commercial name             : Dolby Digital
    Codec ID                    : A_AC3
    Duration                    : 1 h 55 min
    Bit rate mode               : Constant
    Bit rate                    : 256 kb/s
    Channel(s)                  : 2 channels
    Channel layout              : L R
    Sampling rate               : 48.0 kHz
    Frame rate                  : 31.250 FPS (1536 SPF)
    Bit depth                   : 16 bits
    Compression mode            : Lossy
    Stream size                 : 212 MiB (1%)
    Title                       : AC3_2.0_Web_Esp
    Language                    : Spanish
    Service kind                : Complete Main
    Default                     : Yes
    Forced                      : Yes

    Audio #2
    ID                          : 3
    Format                      : AC-3
    Format/Info                 : Audio Coding 3
    Commercial name             : Dolby Digital
    Codec ID                    : A_AC3
    Duration                    : 1 h 55 min
    Bit rate mode               : Constant
    Bit rate                    : 640 kb/s
    Channel(s)                  : 6 channels
    Channel layout              : L R C LFE Ls Rs
    Sampling rate               : 48.0 kHz
    Frame rate                  : 31.250 FPS (1536 SPF)
    Bit depth                   : 16 bits
    Compression mode            : Lossy
    Stream size                 : 530 MiB (3%)
    Title                       : AC3_5.1_Bluray_Eng
    Language                    : English
    Service kind                : Complete Main
    Default                     : No
    Forced                      : No

    Text #1
    ID                          : 4
    Format                      : PGS
    Muxing mode                 : zlib
    Codec ID                    : S_HDMV/PGS
    Codec ID/Info               : Picture based subtitle format used on BDs/HD-DVDs
    Duration                    : 1 h 46 min
    Bit rate                    : 35.4 kb/s
    Count of elements           : 2789
    Stream size                 : 27.0 MiB (0%)
    Title                       : Sub_Esp [PGS]
    Language                    : Spanish
    Default                     : No
    Forced                      : No

    Text #2
    ID                          : 5
    Format                      : PGS
    Muxing mode                 : zlib
    Codec ID                    : S_HDMV/PGS
    Codec ID/Info               : Picture based subtitle format used on BDs/HD-DVDs
    Duration                    : 1 h 52 min
    Bit rate                    : 40.4 kb/s
    Count of elements           : 3233
    Stream size                 : 32.5 MiB (0%)
    Title                       : Sub_Eng [PGS]
    Language                    : English
    Default                     : No
    Forced                      : No

    Text #3
    ID                          : 6
    Format                      : UTF-8
    Codec ID                    : S_TEXT/UTF8
    Codec ID/Info               : UTF-8 Plain Text
    Duration                    : 1 h 5 min
    Bit rate                    : 1 b/s
    Count of elements           : 24
    Stream size                 : 613 Bytes (0%)
    Title                       : Sub_Forzados
    Language                    : Spanish
    Default                     : Yes
    Forced                      : Yes

    Text #4
    ID                          : 7
    Format                      : UTF-8
    Codec ID                    : S_TEXT/UTF8
    Codec ID/Info               : UTF-8 Plain Text
    Duration                    : 1 h 46 min
    Bit rate                    : 51 b/s
    Count of elements           : 1388
    Stream size                 : 39.9 KiB (0%)
    Title                       : Sub_Esp
    Language                    : Spanish
    Default                     : No
    Forced                      : No

    Menu
    00:00:00.000                : :Chapter 1
    00:06:19.004                : :Chapter 2
    00:13:16.838                : :Chapter 3
    00:21:29.663                : :Chapter 4
    00:28:25.287                : :Chapter 5
    00:33:30.050                : :Chapter 6
    00:42:12.739                : :Chapter 7
    00:48:23.234                : :Chapter 8
    00:55:15.938                : :Chapter 9
    01:05:21.292                : :Chapter 10
    01:10:13.835                : :Chapter 11
    01:21:01.357                : :Chapter 12
    01:25:16.194                : :Chapter 13
    01:31:16.346                : :Chapter 14
    01:39:35.261                : :Chapter 15
    01:46:39.435                : :Chapter 16

  • Peso: 18.2 GiB

Sinopsis

Descargar Los 3 del Infierno (2019) Full HD 1080p Latino. Otis, Baby y Spaulding han logrado sobrevivir de alguna manera a una tormenta de balas. Su recuperación “satánica” les lleva directamente a prisión, de donde escapan sin demasiados problemas. Una vez fuera conocerán a un cuarto miembro, Foxy, que comparte sus peculiares virtudes, y con el cual volverán a desatar el caos allá por donde pasan. Secuela de “Los renegados del diablo”.

Ficha técnica

Video trailer de la película

Enlaces de descarga

Rip de Bluray

Descargar Los 3 del Infierno (2019) Full HD 1080p Latino




Aportes de DPeliculasHDmega la pass es:dpeliculashdmega.org Aportes de CinemaniaHD la pass es:cinemaniahdd.com

Películas relacionadas

descargar Los 3 del Infierno (2019) Full HD 1080p Latino Full 1080p 1080p gratis, Los 3 del Infierno (2019) Full HD 1080p Latino Full 1080p mega 1 link, Los 3 del Infierno (2019) Full HD 1080p Latino Full 1080p pelicula completa, descargar Los 3 del Infierno (2019) Full HD 1080p Latino Full 1080p gratis en mega.

Los 3 del Infierno (2019) Full HD 1080p Latino pelicula full hd, Los 3 del Infierno (2019) Full HD 1080p Latino mega latino, Los 3 del Infierno (2019) Full HD 1080p Latino 4k latino, Los 3 del Infierno (2019) Full HD 1080p Latino pelicula completa, Los 3 del Infierno (2019) Full HD 1080p Latino descargar gratis, descargar Los 3 del Infierno (2019) Full HD 1080p Latino pelicula latino, Los 3 del Infierno (2019) Full HD 1080p Latino 1 link mega, Los 3 del Infierno (2019) Full HD 1080p Latino 1 link google drive, Los 3 del Infierno (2019) Full HD 1080p Latino hd 1080p latino.
Comentarios 0