×

¿Problemas para descargar con Mozilla, EDGE? Deshabilita la opción "Abrir vinculos en una pestaña nueva" tal como lo muestra ésta imagen.

28 Days Later… (2002) REMUX 1080p Latino – CMHDD

199 vistas

Información de 28 Days Later… (2002) REMUX 1080p Latino – CMHDD

Datos de la película

  • Calidad: Full 1080p
  • Audio: Español Latino AC3 5.1 BLURAY - Ingles DTS 5.1 BLURAY
  • Subtitulos: Español Latino PGS
  • Resolución: 1920x1080p
  • Formato: MKV
  • Codec: H.264
  • Encoder: Dracarys
  • Mediainfo: Clic para Mostrar Datos Ver
  • Format                      : Matroska
    Format version              : Version 4
    File size                   : 31.7 GiB
    Duration                    : 1 h 53 min
    Overall bit rate mode       : Variable
    Overall bit rate            : 40.1 Mb/s
    Movie name                  : 28 Days Later... (2002) REMUX 1080p Latino - CMHDD
    Encoded date                : UTC 2021-10-03 16:51:35
    Writing application         : mkvmerge v17.0.0 ('Be Ur Friend') 64-bit
    Writing library             : libebml v1.3.5 + libmatroska v1.4.8

    Video
    ID                          : 1
    Format                      : AVC
    Format/Info                 : Advanced Video Codec
    Format profile              : High@L4.1
    Format settings             : CABAC / 4 Ref Frames
    Format settings, CABAC      : Yes
    Format settings, Reference  : 4 frames
    Codec ID                    : V_MPEG4/ISO/AVC
    Duration                    : 1 h 53 min
    Bit rate mode               : Variable
    Bit rate                    : 35.6 Mb/s
    Maximum bit rate            : 38.0 Mb/s
    Width                       : 1 920 pixels
    Height                      : 1 080 pixels
    Display aspect ratio        : 16:9
    Frame rate mode             : Constant
    Frame rate                  : 23.976 (24000/1001) FPS
    Standard                    : NTSC
    Color space                 : YUV
    Chroma subsampling          : 4:2:0
    Bit depth                   : 8 bits
    Scan type                   : Progressive
    Bits/(Pixel*Frame)          : 0.717
    Stream size                 : 28.2 GiB (89%)
    Default                     : Yes
    Forced                      : No
    Color range                 : Limited
    Color primaries             : BT.709
    Transfer characteristics    : BT.709
    Matrix coefficients         : BT.709

    Audio #1
    ID                          : 2
    Format                      : DTS XLL
    Format/Info                 : Digital Theater Systems
    Commercial name             : DTS-HD Master Audio
    Codec ID                    : A_DTS
    Duration                    : 1 h 53 min
    Bit rate mode               : Variable
    Bit rate                    : 4 031 kb/s
    Channel(s)                  : 6 channels
    Channel layout              : C L R Ls Rs LFE
    Sampling rate               : 48.0 kHz
    Frame rate                  : 93.750 FPS (512 SPF)
    Bit depth                   : 24 bits
    Compression mode            : Lossless
    Stream size                 : 3.18 GiB (10%)
    Language                    : English
    Default                     : No
    Forced                      : No

    Audio #2
    ID                          : 3
    Format                      : AC-3
    Format/Info                 : Audio Coding 3
    Commercial name             : Dolby Digital
    Codec ID                    : A_AC3
    Duration                    : 1 h 53 min
    Bit rate mode               : Constant
    Bit rate                    : 448 kb/s
    Channel(s)                  : 6 channels
    Channel layout              : L R C LFE Ls Rs
    Sampling rate               : 48.0 kHz
    Frame rate                  : 31.250 FPS (1536 SPF)
    Compression mode            : Lossy
    Stream size                 : 362 MiB (1%)
    Language                    : Spanish
    Service kind                : Complete Main
    Default                     : Yes
    Forced                      : No

    Text #1
    ID                          : 4
    Format                      : PGS
    Muxing mode                 : zlib
    Codec ID                    : S_HDMV/PGS
    Codec ID/Info               : Picture based subtitle format used on BDs/HD-DVDs
    Duration                    : 1 h 46 min
    Bit rate                    : 32.4 kb/s
    Count of elements           : 1936
    Stream size                 : 24.6 MiB (0%)
    Language                    : Spanish
    Default                     : No
    Forced                      : No

    Text #2
    ID                          : 5
    Format                      : PGS
    Muxing mode                 : zlib
    Codec ID                    : S_HDMV/PGS
    Codec ID/Info               : Picture based subtitle format used on BDs/HD-DVDs
    Duration                    : 57 min 12 s
    Bit rate                    : 180 b/s
    Count of elements           : 6
    Stream size                 : 75.7 KiB (0%)
    Language                    : Spanish
    Default                     : No
    Forced                      : No

    Menu
    00:00:00.000                : en:Chapter 1
    00:05:28.828                : en:Chapter 2
    00:13:13.000                : en:Chapter 3
    00:17:42.436                : en:Chapter 4
    00:21:50.892                : en:Chapter 5
    00:26:38.847                : en:Chapter 6
    00:29:06.244                : en:Chapter 7
    00:32:45.463                : en:Chapter 8
    00:34:50.588                : en:Chapter 9
    00:40:03.150                : en:Chapter 10
    00:43:01.161                : en:Chapter 11
    00:44:48.435                : en:Chapter 12
    00:47:10.536                : en:Chapter 13
    00:49:22.668                : en:Chapter 14
    00:53:15.609                : en:Chapter 15
    00:56:12.202                : en:Chapter 16
    00:57:54.053                : en:Chapter 17
    01:01:48.329                : en:Chapter 18
    01:04:24.819                : en:Chapter 19
    01:06:39.704                : en:Chapter 20
    01:10:00.529                : en:Chapter 21
    01:13:41.166                : en:Chapter 22
    01:16:55.902                : en:Chapter 23
    01:18:19.986                : en:Chapter 24
    01:24:28.813                : en:Chapter 25
    01:27:40.630                : en:Chapter 26
    01:29:51.594                : en:Chapter 27
    01:33:30.730                : en:Chapter 28
    01:40:30.149                : en:Chapter 29
    01:43:20.986                : en:Chapter 30
    01:44:46.154                : en:Chapter 31
    01:48:05.312                : en:Chapter 32

  • Peso: 31.7 GiB

Sinopsis

Londres es un cementerio. Las calles están ahora desiertas. Reina un silencio total. Tras la propagación de un virus que acabó con la mayor parte de la población, tuvo lugar la invasión de unos seres terroríficos. El virus se difundió, tras la incursión en un laboratorio, de un grupo de defensores de los derechos de los animales. Transmitido por la sangre, el virus produce efectos devastadores. En 28 días la epidemia se extiende por todo el país y sólo queda un puñado de supervivientes…

Ficha técnica

Video trailer de la película

Enlaces de descarga

Rip de Bluray

Descargar 28 Days Later… (2002) REMUX 1080p Latino – CMHDD


Aportes de DPeliculasHDmega la pass es:dpeliculashdmega.org Aportes de CinemaniaHD la pass es:cinemaniahdd.com
Guardado en : Ciencia ficción , Suspenso , Terror

Películas relacionadas

  • Juego de espías (2001) 1080p Latino

    Juego de espías (2001) 1080p Latino

    2001
    Juego de espías (2001) 1080p Latino

    2h 6m 2001

    Descargar Juego de espías (2001) 1080p Latino. Corre el año 1991, y al veterano agente de la CIA Nathan...

    Director: Tony Scott

    Género: Acción

    Actores: Zsolt Zágoni

  • Juego de espías (2001) Full HD 1080p Latino

    Juego de espías (2001) Full HD 1080p Latino

    2001
    Juego de espías (2001) Full HD 1080p Latino

    2h 6m 2001

    Descargar Juego de espías (2001) Full HD 1080p Latino. Corre el año 1991, y al veterano agente de la...

    Director: Tony Scott

    Género: Acción

    Actores: Zsolt Zágoni

  • Juego de espías (2001) REMUX 1080p Latino

    Juego de espías (2001) REMUX 1080p Latino

    2001
    Juego de espías (2001) REMUX 1080p Latino

    1h 55m 2001

    Descargar Juego de espías (2001) REMUX 1080p Latino. El día de su jubilación, el veterano agente de...

    Director: Tony Scott

    Género: Acción

    Actores: Zsolt Zágoni

descargar 28 Days Later… (2002) REMUX 1080p Latino – CMHDD Full 1080p 1080p gratis, 28 Days Later… (2002) REMUX 1080p Latino – CMHDD Full 1080p mega 1 link, 28 Days Later… (2002) REMUX 1080p Latino – CMHDD Full 1080p pelicula completa, descargar 28 Days Later… (2002) REMUX 1080p Latino – CMHDD Full 1080p gratis en mega.

28 Days Later… (2002) REMUX 1080p Latino – CMHDD pelicula full hd, 28 Days Later… (2002) REMUX 1080p Latino – CMHDD mega latino, 28 Days Later… (2002) REMUX 1080p Latino – CMHDD 4k latino, 28 Days Later… (2002) REMUX 1080p Latino – CMHDD pelicula completa, 28 Days Later… (2002) REMUX 1080p Latino – CMHDD descargar gratis, descargar 28 Days Later… (2002) REMUX 1080p Latino – CMHDD pelicula latino, 28 Days Later… (2002) REMUX 1080p Latino – CMHDD 1 link mega, 28 Days Later… (2002) REMUX 1080p Latino – CMHDD 1 link google drive, 28 Days Later… (2002) REMUX 1080p Latino – CMHDD hd 1080p latino.