×

¿Problemas para descargar con Mozilla, EDGE? Deshabilita la opción "Abrir vinculos en una pestaña nueva" tal como lo muestra ésta imagen.

28 Days Later… (2002) Full HD 1080p Latino – CMHDD

171 vistas

Información de 28 Days Later… (2002) Full HD 1080p Latino – CMHDD

Datos de la película

  • Calidad: Full 1080p
  • Audio: Español Latino AC3 5.1 BLURAY - Ingles DTS 5.1 BLURAY
  • Subtitulos: Español Latino PGS
  • Resolución: 1920x1080p
  • Formato: MKV
  • Codec: H.264
  • Encoder: Dracarys
  • Mediainfo: Clic para Mostrar Datos Ver
  • Format                      : Matroska
    Format version              : Version 4
    File size                   : 9.61 GiB
    Duration                    : 1 h 53 min
    Overall bit rate mode       : Variable
    Overall bit rate            : 12.2 Mb/s
    Movie name                  : 28 Days Later... (2002) Full HD 1080p Latino - CMHDD
    Encoded date                : UTC 2021-10-24 19:22:31
    Writing application         : mkvmerge v17.0.0 ('Be Ur Friend') 64-bit
    Writing library             : libebml v1.3.5 + libmatroska v1.4.8

    Video
    ID                          : 1
    Format                      : AVC
    Format/Info                 : Advanced Video Codec
    Format profile              : High@L4.1
    Format settings             : CABAC / 4 Ref Frames
    Format settings, CABAC      : Yes
    Format settings, Reference  : 4 frames
    Codec ID                    : V_MPEG4/ISO/AVC
    Duration                    : 1 h 53 min
    Bit rate                    : 7 666 kb/s
    Width                       : 1 920 pixels
    Height                      : 1 080 pixels
    Display aspect ratio        : 16:9
    Frame rate mode             : Constant
    Frame rate                  : 23.976 (24000/1001) FPS
    Color space                 : YUV
    Chroma subsampling          : 4:2:0
    Bit depth                   : 8 bits
    Scan type                   : Progressive
    Bits/(Pixel*Frame)          : 0.154
    Stream size                 : 6.06 GiB (63%)
    Writing library             : x264 core 163 r3059 b684ebe0
    Encoding settings           : cabac=1 / ref=4 / deblock=1:0:0 / analyse=0x3:0x133 / me=esa / subme=10 / psy=1 / psy_rd=1.00:0.00 / mixed_ref=1 / me_range=24 / chroma_me=1 / trellis=2 / 8x8dct=1 / cqm=0 / deadzone=21,11 / fast_pskip=1 / chroma_qp_offset=-2 / threads=24 / lookahead_threads=4 / sliced_threads=0 / nr=0 / decimate=1 / interlaced=0 / bluray_compat=0 / constrained_intra=0 / bframes=8 / b_pyramid=2 / b_adapt=2 / b_bias=0 / direct=3 / weightb=1 / open_gop=0 / weightp=2 / keyint=240 / keyint_min=24 / scenecut=40 / intra_refresh=0 / rc_lookahead=60 / rc=crf / mbtree=1 / crf=20.0 / qcomp=0.60 / qpmin=0 / qpmax=69 / qpstep=4 / vbv_maxrate=62500 / vbv_bufsize=78125 / crf_max=0.0 / nal_hrd=none / filler=0 / ip_ratio=1.40 / aq=1:1.00
    Default                     : Yes
    Forced                      : No
    Color range                 : Limited
    Color primaries             : BT.709
    Transfer characteristics    : BT.709
    Matrix coefficients         : BT.709

    Audio #1
    ID                          : 2
    Format                      : AC-3
    Format/Info                 : Audio Coding 3
    Commercial name             : Dolby Digital
    Codec ID                    : A_AC3
    Duration                    : 1 h 53 min
    Bit rate mode               : Constant
    Bit rate                    : 448 kb/s
    Channel(s)                  : 6 channels
    Channel layout              : L R C LFE Ls Rs
    Sampling rate               : 48.0 kHz
    Frame rate                  : 31.250 FPS (1536 SPF)
    Compression mode            : Lossy
    Stream size                 : 362 MiB (4%)
    Language                    : Spanish
    Service kind                : Complete Main
    Default                     : Yes
    Forced                      : No

    Audio #2
    ID                          : 3
    Format                      : DTS XLL
    Format/Info                 : Digital Theater Systems
    Commercial name             : DTS-HD Master Audio
    Codec ID                    : A_DTS
    Duration                    : 1 h 53 min
    Bit rate mode               : Variable
    Bit rate                    : 4 031 kb/s
    Channel(s)                  : 6 channels
    Channel layout              : C L R Ls Rs LFE
    Sampling rate               : 48.0 kHz
    Frame rate                  : 93.750 FPS (512 SPF)
    Bit depth                   : 24 bits
    Compression mode            : Lossless
    Stream size                 : 3.18 GiB (33%)
    Language                    : English
    Default                     : No
    Forced                      : No

    Text #1
    ID                          : 4
    Format                      : PGS
    Muxing mode                 : zlib
    Codec ID                    : S_HDMV/PGS
    Codec ID/Info               : Picture based subtitle format used on BDs/HD-DVDs
    Duration                    : 1 h 46 min
    Bit rate                    : 32.4 kb/s
    Count of elements           : 1936
    Stream size                 : 24.6 MiB (0%)
    Language                    : Spanish
    Default                     : No
    Forced                      : No

    Text #2
    ID                          : 5
    Format                      : PGS
    Muxing mode                 : zlib
    Codec ID                    : S_HDMV/PGS
    Codec ID/Info               : Picture based subtitle format used on BDs/HD-DVDs
    Duration                    : 57 min 12 s
    Bit rate                    : 180 b/s
    Count of elements           : 6
    Stream size                 : 75.7 KiB (0%)
    Language                    : Spanish
    Default                     : No
    Forced                      : No

    Menu
    00:00:00.000                : :Chapter 1
    00:05:28.829                : :Chapter 2
    00:13:13.001                : :Chapter 3
    00:17:42.436                : :Chapter 4
    00:21:50.893                : :Chapter 5
    00:26:38.847                : :Chapter 6
    00:29:06.245                : :Chapter 7
    00:32:45.464                : :Chapter 8
    00:34:50.589                : :Chapter 9
    00:40:03.151                : :Chapter 10
    00:43:01.162                : :Chapter 11
    00:44:48.436                : :Chapter 12
    00:47:10.536                : :Chapter 13
    00:49:22.668                : :Chapter 14
    00:53:15.609                : :Chapter 15
    00:56:12.202                : :Chapter 16
    00:57:54.054                : :Chapter 17
    01:01:48.330                : :Chapter 18
    01:04:24.819                : :Chapter 19
    01:06:39.704                : :Chapter 20
    01:10:00.530                : :Chapter 21
    01:13:41.167                : :Chapter 22
    01:16:55.903                : :Chapter 23
    01:18:19.987                : :Chapter 24
    01:24:28.814                : :Chapter 25
    01:27:40.630                : :Chapter 26
    01:29:51.595                : :Chapter 27
    01:33:30.730                : :Chapter 28
    01:40:30.149                : :Chapter 29
    01:43:20.986                : :Chapter 30
    01:44:46.155                : :Chapter 31
    01:48:05.312                : :Chapter 32

  • Peso: 9.61 GiB

Sinopsis

Londres es un cementerio. Las calles están ahora desiertas. Reina un silencio total. Tras la propagación de un virus que acabó con la mayor parte de la población, tuvo lugar la invasión de unos seres terroríficos. El virus se difundió, tras la incursión en un laboratorio, de un grupo de defensores de los derechos de los animales. Transmitido por la sangre, el virus produce efectos devastadores. En 28 días la epidemia se extiende por todo el país y sólo queda un puñado de supervivientes…

Ficha técnica

Video trailer de la película

Enlaces de descarga

Rip de Bluray

Descargar 28 Days Later… (2002) Full HD 1080p Latino – CMHDD




Aportes de DPeliculasHDmega la pass es:dpeliculashdmega.org Aportes de CinemaniaHD la pass es:cinemaniahdd.com
Guardado en : Ciencia ficción , Suspenso , Terror

Películas relacionadas

  • El Cuartel Secreto (2022) WEB-DL 4K UHD HDR Latino

    El Cuartel Secreto (2022) WEB-DL 4K UHD HDR Latino

    2022
    El Cuartel Secreto (2022) WEB-DL 4K UHD HDR Latino

    1h 44m 2022

    Descargar El Cuartel Secreto (2022) WEB-DL 4K UHD HDR Latino. Mientras pasan el rato después de la escuela,...

    Director: Henry Joost

    Género: 4K HDR

    Actores: Zeb Slone

  • El Cuartel Secreto (2022) WEB-DL 1080p Latino

    El Cuartel Secreto (2022) WEB-DL 1080p Latino

    2022
    El Cuartel Secreto (2022) WEB-DL 1080p Latino

    1h 44m 2022

    Descargar El Cuartel Secreto (2022) WEB-DL 1080p Latino. Mientras pasan el rato después de la escuela,...

    Director: Henry Joost

    Género: Acción

    Actores: Zeb Slone

  • Men in Black (1997) REMUX 4K HDR Latino – CMHDD

    Men in Black (1997) REMUX 4K HDR Latino – CMHDD

    1997
    Men in Black (1997) REMUX 4K HDR Latino – CMHDD

    1h 34m 1997

    Durante muchos años los extraterrestres han vivido en la Tierra, mezclados con los humanos, sin que...

    Director: Tyrone S. Walker

    Género: Acción

    Actores: Willie C. Carpenter

  • La Máquina infernal (2022) WEB-DL 1080p Latino

    La Máquina infernal (2022) WEB-DL 1080p Latino

    2022
    La Máquina infernal (2022) WEB-DL 1080p Latino

    1h 47m 2022

    Descargar La Máquina infernal (2022) WEB-DL 1080p Latino. Un fan obsesivo saca de su escondite al solitario...

    Director: Andrew Hunt

    Género: Suspenso

    Actores: Rocco Salata

  • Borrego: Sal Del Camino (2022) HD 1080p Latino

    Borrego: Sal Del Camino (2022) HD 1080p Latino

    2022
    Borrego: Sal Del Camino (2022) HD 1080p Latino

    1h 42m 2022

    Descargar Borrego: Sal Del Camino (2022) HD 1080p Latino. Una joven botánica se traslada a un pequeño...

    Director: Jesse Harris

    Género: Crimen

    Actores: Olivia Trujillo

descargar 28 Days Later… (2002) Full HD 1080p Latino – CMHDD Full 1080p 1080p gratis, 28 Days Later… (2002) Full HD 1080p Latino – CMHDD Full 1080p mega 1 link, 28 Days Later… (2002) Full HD 1080p Latino – CMHDD Full 1080p pelicula completa, descargar 28 Days Later… (2002) Full HD 1080p Latino – CMHDD Full 1080p gratis en mega.

28 Days Later… (2002) Full HD 1080p Latino – CMHDD pelicula full hd, 28 Days Later… (2002) Full HD 1080p Latino – CMHDD mega latino, 28 Days Later… (2002) Full HD 1080p Latino – CMHDD 4k latino, 28 Days Later… (2002) Full HD 1080p Latino – CMHDD pelicula completa, 28 Days Later… (2002) Full HD 1080p Latino – CMHDD descargar gratis, descargar 28 Days Later… (2002) Full HD 1080p Latino – CMHDD pelicula latino, 28 Days Later… (2002) Full HD 1080p Latino – CMHDD 1 link mega, 28 Days Later… (2002) Full HD 1080p Latino – CMHDD 1 link google drive, 28 Days Later… (2002) Full HD 1080p Latino – CMHDD hd 1080p latino.
Comentarios 0