×

¿Problemas para descargar con Mozilla, EDGE? Deshabilita la opción "Abrir vinculos en una pestaña nueva" tal como lo muestra ésta imagen.

21 gramos (2003) REMUX 1080p Latino

183 vistas

Información de 21 gramos (2003) REMUX 1080p Latino

Datos de la película

  • Calidad: Full 1080p
  • Audio: Se especifica abajo de la Sinopsis
  • Subtitulos: Español Latino SRT - Ingles SRT
  • Resolución: 1920x1080p
  • Formato: MKV
  • Codec: H.264
  • Encoder: CinefiloCool
  • Mediainfo: Clic para Mostrar Datos Ver
  • 21 Gramos (2003) REMUX 1080p Latino-CMHDD.mkv
    Format                      : Matroska
    Format version              : Version 4
    File size                   : 28.3 GiB
    Duration                    : 2 h 4 min
    Overall bit rate mode       : Variable
    Overall bit rate            : 32.5 Mb/s
    Movie name                  : 21 Grams (2003) CinemaniaHDD.Net
    Encoded date                : UTC 2022-01-05 06:46:07
    Writing application         : mkvmerge v56.1.0 ('My Friend') 64-bit
    Writing library             : libebml v1.4.2 + libmatroska v1.6.4
    Attachments                 : CINEMANIAHD.png

    Video
    ID                          : 1
    Format                      : AVC
    Format/Info                 : Advanced Video Codec
    Format profile              : High@L4.1
    Format settings             : CABAC / 4 Ref Frames
    Format settings, CABAC      : Yes
    Format settings, Reference  : 4 frames
    Codec ID                    : V_MPEG4/ISO/AVC
    Duration                    : 2 h 4 min
    Bit rate mode               : Variable
    Bit rate                    : 30.0 Mb/s
    Maximum bit rate            : 33.0 Mb/s
    Width                       : 1 920 pixels
    Height                      : 1 080 pixels
    Display aspect ratio        : 16:9
    Frame rate mode             : Constant
    Frame rate                  : 23.976 (24000/1001) FPS
    Color space                 : YUV
    Chroma subsampling          : 4:2:0
    Bit depth                   : 8 bits
    Scan type                   : Progressive
    Bits/(Pixel*Frame)          : 0.603
    Stream size                 : 26.1 GiB (92%)
    Title                       : REMUX HD1080p [CinemaniaHDD]
    Default                     : Yes
    Forced                      : Yes
    Color range                 : Limited
    Color primaries             : BT.709
    Transfer characteristics    : BT.709
    Matrix coefficients         : BT.709

    Audio #1
    ID                          : 2
    Format                      : AC-3
    Format/Info                 : Audio Coding 3
    Commercial name             : Dolby Digital
    Codec ID                    : A_AC3
    Duration                    : 2 h 4 min
    Bit rate mode               : Constant
    Bit rate                    : 256 kb/s
    Channel(s)                  : 2 channels
    Channel layout              : L R
    Sampling rate               : 48.0 kHz
    Frame rate                  : 31.250 FPS (1536 SPF)
    Compression mode            : Lossy
    Stream size                 : 228 MiB (1%)
    Title                       : Español Latino ORG [CinemaniaHDD]
    Language                    : Spanish
    Service kind                : Complete Main
    Default                     : No
    Forced                      : No

    Audio #2
    ID                          : 3
    Format                      : AC-3
    Format/Info                 : Audio Coding 3
    Commercial name             : Dolby Digital
    Codec ID                    : A_AC3
    Duration                    : 2 h 4 min
    Bit rate mode               : Constant
    Bit rate                    : 256 kb/s
    Channel(s)                  : 2 channels
    Channel layout              : L R
    Sampling rate               : 48.0 kHz
    Frame rate                  : 31.250 FPS (1536 SPF)
    Compression mode            : Lossy
    Stream size                 : 228 MiB (1%)
    Title                       : Español Latino REDUB [CinemaniaHDD]
    Language                    : Spanish
    Service kind                : Complete Main
    Default                     : Yes
    Forced                      : Yes

    Audio #3
    ID                          : 4
    Format                      : DTS XLL
    Format/Info                 : Digital Theater Systems
    Commercial name             : DTS-HD Master Audio
    Codec ID                    : A_DTS
    Duration                    : 2 h 4 min
    Bit rate mode               : Variable
    Bit rate                    : 1 978 kb/s
    Channel(s)                  : 6 channels
    Channel layout              : C L R Ls Rs LFE
    Sampling rate               : 48.0 kHz
    Frame rate                  : 93.750 FPS (512 SPF)
    Bit depth                   : 16 bits
    Compression mode            : Lossless
    Stream size                 : 1.72 GiB (6%)
    Title                       : Ingles [CinemaniaHDD]
    Language                    : English
    Default                     : No
    Forced                      : No

    Text #1
    ID                          : 5
    Format                      : UTF-8
    Codec ID                    : S_TEXT/UTF8
    Codec ID/Info               : UTF-8 Plain Text
    Duration                    : 1 h 49 min
    Bit rate                    : 1 b/s
    Count of elements           : 36
    Stream size                 : 966 Bytes (0%)
    Title                       : Forzados-SRT [CinemaniaHDD]
    Language                    : Spanish
    Default                     : Yes
    Forced                      : Yes

    Text #2
    ID                          : 6
    Format                      : UTF-8
    Codec ID                    : S_TEXT/UTF8
    Codec ID/Info               : UTF-8 Plain Text
    Duration                    : 1 h 57 min
    Bit rate                    : 43 b/s
    Count of elements           : 1095
    Stream size                 : 37.3 KiB (0%)
    Title                       : Español-SRT [CinemaniaHDD]
    Language                    : Spanish
    Default                     : No
    Forced                      : No

    Text #3
    ID                          : 7
    Format                      : UTF-8
    Codec ID                    : S_TEXT/UTF8
    Codec ID/Info               : UTF-8 Plain Text
    Duration                    : 2 h 3 min
    Bit rate                    : 47 b/s
    Count of elements           : 1227
    Stream size                 : 43.0 KiB (0%)
    Title                       : Ingles-SRT [CinemaniaHDD]
    Language                    : English
    Default                     : No
    Forced                      : No

    Menu
    00:00:00.000                : 1. Mom Is Waiting for Us
    00:04:03.535                : 2. So This Is Death's Waiting Room?
    00:07:17.103                : 3. Jesus Is Our Hope
    00:11:20.972                : 4. Call an Ambulance
    00:14:30.745                : 5. Washing the Past
    00:18:32.111                : 6. There's No Hitting in This House
    00:22:11.455                : 7. Nobody Saw Him
    00:26:51.944                : 8. Have You Been Drinking?
    00:31:30.806                : 9. Heart-to-Heart
    00:38:35.188                : 10. Duty Bound
    00:43:18.930                : 11. The First Day of My New Life
    00:45:32.521                : 12. Life Does Not Go On
    00:49:52.990                : 13. Original Owner
    00:52:48.415                : 14. Bled Dry
    00:54:51.455                : 15. God Even Knows When a Single Hair Moves...
    00:57:00.751                : 16. Going to Heaven
    00:59:47.417                : 17. Your Friend
    01:03:26.511                : 18. Did You Bring What I Asked You For?
    01:06:06.838                : 19. Making Plans
    01:10:44.907                : 20. Coming Home
    01:14:53.614                : 21. Hidden Numbers
    01:16:33.047                : 22. You Shouldn't Have Done It
    01:20:47.259                : 23. Can I See You Again?
    01:24:28.063                : 24. A Good Heart
    01:36:01.923                : 25. Lack of Evidence
    01:39:50.109                : 26. Daddy, a Pigeon!
    01:43:22.822                : 27. Despair
    01:45:18.145                : 28. Red Shoelaces
    01:49:31.690                : 29. You're Pregnant
    01:50:28.121                : 30. How Many Times?
    01:55:34.302                : 31. 21 Grams
    01:58:18.133                : 32. End Titles

  • Peso: 28.3 GiB

Sinopsis

Descargar 21 gramos (2003) REMUX 1080p Latino. Paul Rivers es un brillante profesor universitario que está casado con Mary. Su relación no es demasiado buena, sobre todo desde que a Paul le diagnosticaron una enfermedad mortal. Si no recibe pronto un transplante de corazón, morirá irremediablemente. Por su parte Christina Peck ha encontrado la tranquilidad después de un pasado auténticamente turbulento, marcado por las drogas y el alcohol.

Audio Español Latino AC3 2.0 Doblaje Original + AC3 2.0 Redoblaje – DTS-HD 5.1 Bluray
Disponible Solo Para VIP!!!

Ficha técnica

Video trailer de la película

Enlaces de descarga

Rip de Bluray

Descargar 21 gramos (2003) REMUX 1080p Latino


Aportes de DPeliculasHDmega la pass es:dpeliculashdmega.org Aportes de CinemaniaHD la pass es:cinemaniahdd.com
Guardado en : Crimen , Drama , Remux , Suspenso

Películas relacionadas

descargar 21 gramos (2003) REMUX 1080p Latino Full 1080p 1080p gratis, 21 gramos (2003) REMUX 1080p Latino Full 1080p mega 1 link, 21 gramos (2003) REMUX 1080p Latino Full 1080p pelicula completa, descargar 21 gramos (2003) REMUX 1080p Latino Full 1080p gratis en mega.

21 gramos (2003) REMUX 1080p Latino pelicula full hd, 21 gramos (2003) REMUX 1080p Latino mega latino, 21 gramos (2003) REMUX 1080p Latino 4k latino, 21 gramos (2003) REMUX 1080p Latino pelicula completa, 21 gramos (2003) REMUX 1080p Latino descargar gratis, descargar 21 gramos (2003) REMUX 1080p Latino pelicula latino, 21 gramos (2003) REMUX 1080p Latino 1 link mega, 21 gramos (2003) REMUX 1080p Latino 1 link google drive, 21 gramos (2003) REMUX 1080p Latino hd 1080p latino.
Comentarios 0