×

¿Problemas para descargar con Mozilla, EDGE? Deshabilita la opción "Abrir vinculos en una pestaña nueva" tal como lo muestra ésta imagen.

21 Bridges (2019) WEB-DL 1080p Latino

1.823 vistas

Información de 21 Bridges (2019) WEB-DL 1080p Latino

Datos de la película

  • Calidad: WEBDL
  • Audio: Español Latino AC3 2.0 iTunes - Ingles AC3 5.1 iTunes
  • Subtitulos: Español Latino SRT- FORZADOS SRT
  • Resolución: 1920x804
  • Formato: MKV
  • Codec: H.264
  • Encoder: cinemaniahdd
  • Mediainfo: Clic para Mostrar Datos Ver
  • 21 Bridges (2019) WEB-DL 1080p Latino.mkv
    Format                      : Matroska
    Format version              : Version 4
    File size                   : 3.53 GiB
    Duration                    : 1 h 39 min
    Overall bit rate            : 5 083 kb/s
    Movie name                  : 21 Bridges (2019) - CinemaniaHDD.Net
    Encoded date                : UTC 2020-02-04 05:22:14
    Writing application         : mkvmerge v42.0.0 ('Overtime') 64-bit
    Writing library             : libebml v1.3.10 + libmatroska v1.5.2
    Cover                       : Yes
    Attachments                 : cover.jpg

    Video
    ID                          : 1
    Format                      : AVC
    Format/Info                 : Advanced Video Codec
    Format profile              : High@L4
    Format settings             : CABAC / 5 Ref Frames
    Format settings, CABAC      : Yes
    Format settings, ReFrames   : 5 frames
    Codec ID                    : V_MPEG4/ISO/AVC
    Duration                    : 1 h 39 min
    Bit rate                    : 4 440 kb/s
    Width                       : 1 920 pixels
    Height                      : 804 pixels
    Display aspect ratio        : 2.40:1
    Frame rate mode             : Constant
    Frame rate                  : 23.976 (24000/1001) FPS
    Color space                 : YUV
    Chroma subsampling          : 4:2:0
    Bit depth                   : 8 bits
    Scan type                   : Progressive
    Bits/(Pixel*Frame)          : 0.120
    Stream size                 : 3.09 GiB (87%)
    Title                       : CinemaniaHDD
    Language                    : English
    Default                     : Yes
    Forced                      : No
    Color range                 : Limited
    Color primaries             : BT.709
    Transfer characteristics    : BT.709
    Matrix coefficients         : BT.709

    Audio #1
    ID                          : 2
    Format                      : AC-3
    Format/Info                 : Audio Coding 3
    Commercial name             : Dolby Digital
    Codec ID                    : A_AC3
    Duration                    : 1 h 39 min
    Bit rate mode               : Constant
    Bit rate                    : 256 kb/s
    Channel(s)                  : 2 channels
    Channel layout              : L R
    Sampling rate               : 48.0 kHz
    Frame rate                  : 31.250 FPS (1536 SPF)
    Bit depth                   : 16 bits
    Compression mode            : Lossy
    Delay relative to video     : -42 ms
    Stream size                 : 182 MiB (5%)
    Title                       : Español latino [CinemaniaHDD]
    Language                    : Spanish
    Service kind                : Complete Main
    Default                     : Yes
    Forced                      : No

    Audio #2
    ID                          : 3
    Format                      : AC-3
    Format/Info                 : Audio Coding 3
    Commercial name             : Dolby Digital
    Codec ID                    : A_AC3
    Duration                    : 1 h 39 min
    Bit rate mode               : Constant
    Bit rate                    : 384 kb/s
    Channel(s)                  : 6 channels
    Channel layout              : L R C LFE Ls Rs
    Sampling rate               : 48.0 kHz
    Frame rate                  : 31.250 FPS (1536 SPF)
    Bit depth                   : 16 bits
    Compression mode            : Lossy
    Delay relative to video     : -42 ms
    Stream size                 : 273 MiB (8%)
    Title                       : Inglés [CinemaniaHDD]
    Language                    : English
    Service kind                : Complete Main
    Default                     : No
    Forced                      : No

    Text #1
    ID                          : 4
    Format                      : UTF-8
    Codec ID                    : S_TEXT/UTF8
    Codec ID/Info               : UTF-8 Plain Text
    Duration                    : 22 min 10 s
    Bit rate                    : 0 b/s
    Count of elements           : 2
    Stream size                 : 60.0 Bytes (0%)
    Title                       : Forzados [CinemaniaHDD]
    Language                    : Spanish
    Default                     : Yes
    Forced                      : Yes

    Text #2
    ID                          : 5
    Format                      : UTF-8
    Codec ID                    : S_TEXT/UTF8
    Codec ID/Info               : UTF-8 Plain Text
    Duration                    : 1 h 38 min
    Bit rate                    : 43 b/s
    Count of elements           : 1101
    Stream size                 : 31.4 KiB (0%)
    Title                       : Español latino [CinemaniaHDD]
    Language                    : Spanish
    Default                     : No
    Forced                      : No

    Menu
    00:00:00.000                : en:1
    00:02:52.797                : en:2
    00:11:35.319                : en:3
    00:16:30.697                : en:4
    00:24:58.830                : en:5
    00:30:30.535                : en:6
    00:36:51.623                : en:7
    00:43:18.925                : en:8
    00:48:03.167                : en:9
    00:53:40.379                : en:10
    00:59:26.016                : en:11
    01:05:55.572                : en:12
    01:15:55.588                : en:13
    01:18:27.238                : en:14
    01:24:51.079                : en:15
    01:30:35.798                : en:16

     

  • Peso: 3.53 GiB

Sinopsis

Andre Davis (Chadwick Boseman) es un policía de Nueva york al que le encargan la investigación del asesinato de varios policías. Durante la búsqueda contrarreloj de los responsables, en la que se cierran por primera vez en la historia de Manhattan todos los puentes que acceden a ella, el detective descubre una conspiración en la que tendrá que discernir entre aquellos a los que caza y los sospechosos que están tratando de cazarle a él.

Ficha técnica

Video trailer de la película

Enlaces de descarga

Rip de Bluray

Descargar 21 Bridges (2019) WEB-DL 1080p Latino




Aportes de DPeliculasHDmega la pass es:dpeliculashdmega.org Aportes de CinemaniaHD la pass es:cinemaniahdd.com
Guardado en : Acción , Crimen , Drama , Suspenso

Películas relacionadas

  • El Ultimo Juego (2021) WEB-DL 1080p Latino

    El Ultimo Juego (2021) WEB-DL 1080p Latino

    2021
    El Ultimo Juego (2021) WEB-DL 1080p Latino

    1h 21m 2021

    Descargar El Ultimo Juego (2021) WEB-DL 1080p Latino. 6 extraños se despiertan dentro de una habitación...

    Director: John David Moffat IV

    Género: Drama

    Actores: Yasmin Irvine

  • DC Liga De Supermascotas (2022) HD 1080p Latino

    DC Liga De Supermascotas (2022) HD 1080p Latino

    2022
    DC Liga De Supermascotas (2022) HD 1080p Latino

    1h 45m 2022

    Descargar DC Liga De Supermascotas (2022) HD 1080p Latino. Krypto el Superperro y Superman son amigos...

    Director: Sam Levine

    Género: Acción

    Actores: Yvette Nicole Brown

  • Invitacion Al Infierno (2022) MA WEB-DL 1080p Latino

    Invitacion Al Infierno (2022) MA WEB-DL 1080p Latino

    2022
    Invitacion Al Infierno (2022) MA WEB-DL 1080p Latino

    1h 45m 2022

    Descargar Invitacion Al Infierno (2022) MA WEB-DL 1080p Latino. Tras la muerte de su madre y quedarse...

    Director: Jessica M. Thompson

    Género: Suspenso

    Actores: Virág Bárány

descargar 21 Bridges (2019) WEB-DL 1080p Latino WEBDL 1080p gratis, 21 Bridges (2019) WEB-DL 1080p Latino WEBDL mega 1 link, 21 Bridges (2019) WEB-DL 1080p Latino WEBDL pelicula completa, descargar 21 Bridges (2019) WEB-DL 1080p Latino WEBDL gratis en mega.

21 Bridges (2019) WEB-DL 1080p Latino pelicula full hd, 21 Bridges (2019) WEB-DL 1080p Latino mega latino, 21 Bridges (2019) WEB-DL 1080p Latino 4k latino, 21 Bridges (2019) WEB-DL 1080p Latino pelicula completa, 21 Bridges (2019) WEB-DL 1080p Latino descargar gratis, descargar 21 Bridges (2019) WEB-DL 1080p Latino pelicula latino, 21 Bridges (2019) WEB-DL 1080p Latino 1 link mega, 21 Bridges (2019) WEB-DL 1080p Latino 1 link google drive, 21 Bridges (2019) WEB-DL 1080p Latino hd 1080p latino.
Comentarios 0