×

¿Problemas para descargar con Mozilla, EDGE? Deshabilita la opción "Abrir vinculos en una pestaña nueva" tal como lo muestra ésta imagen.

Nueva York sin salida (2019) Full HD 1080p Latino

2.323 vistas

Información de Nueva York sin salida (2019) Full HD 1080p Latino

Datos de la película

  • Calidad: Full 1080p
  • Audio: Español Latino AC3 5.1 BLURAY - Ingles DTS 5.1 BLURAY
  • Subtitulos: Español Latino PGS - Ingles PGS
  • Resolución: 1920x1080p
  • Formato: MKV
  • Codec: H.264
  • Encoder: CinefiloCool
  • Mediainfo: Clic para Mostrar Datos Ver
  • Nueva York sin salida (2019) Full HD 1080p Latino-CMHDD_Fix.mkv
    Format                      : Matroska
    Format version              : Version 4
    File size                   : 4.72 GiB
    Duration                    : 1 h 39 min
    Overall bit rate            : 6 763 kb/s
    Movie name                  : CinemaniaHDD.Net
    Encoded date                : UTC 2020-06-30 23:22:14
    Writing application         : mkvmerge v46.0.0 ('No Deeper Escape') 64-bit
    Writing library             : libebml v1.3.10 + libmatroska v1.5.2
    Attachments                 : CINEMANIAHD.png

    Video
    ID                          : 1
    Format                      : AVC
    Format/Info                 : Advanced Video Codec
    Format profile              : High@L4.1
    Format settings             : CABAC / 4 Ref Frames
    Format settings, CABAC      : Yes
    Format settings, Reference  : 4 frames
    Codec ID                    : V_MPEG4/ISO/AVC
    Duration                    : 1 h 39 min
    Bit rate                    : 4 592 kb/s
    Width                       : 1 920 pixels
    Height                      : 1 080 pixels
    Display aspect ratio        : 16:9
    Frame rate mode             : Constant
    Frame rate                  : 23.976 (24000/1001) FPS
    Color space                 : YUV
    Chroma subsampling          : 4:2:0
    Bit depth                   : 8 bits
    Scan type                   : Progressive
    Bits/(Pixel*Frame)          : 0.092
    Stream size                 : 3.21 GiB (68%)
    Title                       : Full HD1080p [Bluray]
    Writing library             : x264 core 157 r2935 545de2f
    Encoding settings           : cabac=1 / ref=4 / deblock=1:-1:-1 / analyse=0x3:0x133 / me=tesa / subme=11 / psy=1 / psy_rd=1.00:0.15 / mixed_ref=1 / me_range=24 / chroma_me=1 / trellis=2 / 8x8dct=1 / cqm=0 / deadzone=21,11 / fast_pskip=0 / chroma_qp_offset=-3 / threads=34 / lookahead_threads=8 / sliced_threads=0 / nr=0 / decimate=1 / interlaced=0 / bluray_compat=0 / constrained_intra=0 / bframes=16 / b_pyramid=2 / b_adapt=2 / b_bias=0 / direct=3 / weightb=1 / open_gop=0 / weightp=2 / keyint=240 / keyint_min=24 / scenecut=40 / intra_refresh=0 / rc_lookahead=60 / rc=crf / mbtree=1 / crf=20.0 / qcomp=0.60 / qpmin=0 / qpmax=69 / qpstep=4 / vbv_maxrate=62500 / vbv_bufsize=78125 / crf_max=0.0 / nal_hrd=none / filler=0 / ip_ratio=1.40 / aq=1:1.00
    Default                     : Yes
    Forced                      : Yes
    Color range                 : Limited
    Color primaries             : BT.709
    Transfer characteristics    : BT.709
    Matrix coefficients         : BT.709

    Audio #1
    ID                          : 2
    Format                      : AC-3
    Format/Info                 : Audio Coding 3
    Commercial name             : Dolby Digital
    Codec ID                    : A_AC3
    Duration                    : 1 h 39 min
    Bit rate mode               : Constant
    Bit rate                    : 640 kb/s
    Channel(s)                  : 6 channels
    Channel layout              : L R C LFE Ls Rs
    Sampling rate               : 48.0 kHz
    Frame rate                  : 31.250 FPS (1536 SPF)
    Compression mode            : Lossy
    Stream size                 : 458 MiB (9%)
    Title                       : AC3_5.1_Bluray_Esp
    Language                    : Spanish
    Service kind                : Complete Main
    Default                     : Yes
    Forced                      : No

    Audio #2
    ID                          : 3
    Format                      : DTS
    Format/Info                 : Digital Theater Systems
    Codec ID                    : A_DTS
    Duration                    : 1 h 39 min
    Bit rate mode               : Constant
    Bit rate                    : 1 509 kb/s
    Channel(s)                  : 6 channels
    Channel layout              : C L R Ls Rs LFE
    Sampling rate               : 48.0 kHz
    Frame rate                  : 93.750 FPS (512 SPF)
    Bit depth                   : 24 bits
    Compression mode            : Lossy
    Stream size                 : 1.05 GiB (22%)
    Title                       : DTS_5.1_Bluray_Eng
    Language                    : English
    Default                     : No
    Forced                      : No

    Text #1
    ID                          : 4
    Format                      : PGS
    Muxing mode                 : zlib
    Codec ID                    : S_HDMV/PGS
    Codec ID/Info               : Picture based subtitle format used on BDs/HD-DVDs
    Duration                    : 1 h 38 min
    Bit rate                    : 27.2 kb/s
    Count of elements           : 2206
    Stream size                 : 19.2 MiB (0%)
    Title                       : Sub_Esp [PGS]
    Language                    : Spanish
    Default                     : No
    Forced                      : No

    Text #2
    ID                          : 5
    Format                      : PGS
    Muxing mode                 : zlib
    Codec ID                    : S_HDMV/PGS
    Codec ID/Info               : Picture based subtitle format used on BDs/HD-DVDs
    Duration                    : 1 h 30 min
    Bit rate                    : 38.9 kb/s
    Count of elements           : 2506
    Stream size                 : 25.3 MiB (1%)
    Title                       : Sub_Eng [PGS]
    Language                    : English
    Default                     : No
    Forced                      : No

    Text #3
    ID                          : 6
    Format                      : UTF-8
    Codec ID                    : S_TEXT/UTF8
    Codec ID/Info               : UTF-8 Plain Text
    Duration                    : 22 min 10 s
    Bit rate                    : 0 b/s
    Count of elements           : 2
    Stream size                 : 60.0 Bytes (0%)
    Title                       : Sub_Forzados
    Language                    : Spanish
    Default                     : Yes
    Forced                      : Yes

    Text #4
    ID                          : 7
    Format                      : UTF-8
    Codec ID                    : S_TEXT/UTF8
    Codec ID/Info               : UTF-8 Plain Text
    Duration                    : 1 h 38 min
    Bit rate                    : 43 b/s
    Count of elements           : 1101
    Stream size                 : 31.4 KiB (0%)
    Title                       : Sub_Esp
    Language                    : Spanish
    Default                     : No
    Forced                      : No

    Menu
    00:00:00.000                : en:Chapter 01
    00:03:16.613                : en:Chapter 02
    00:07:48.509                : en:Chapter 03
    00:11:59.343                : en:Chapter 04
    00:16:54.722                : en:Chapter 05
    00:22:33.143                : en:Chapter 06
    00:30:54.561                : en:Chapter 07
    00:34:50.046                : en:Chapter 08
    00:40:16.414                : en:Chapter 09
    00:44:39.718                : en:Chapter 10
    00:50:54.718                : en:Chapter 11
    00:54:04.407                : en:Chapter 12
    00:58:52.320                : en:Chapter 13
    01:02:08.599                : en:Chapter 14
    01:06:19.600                : en:Chapter 15
    01:10:27.556                : en:Chapter 16
    01:16:19.616                : en:Chapter 17
    01:19:19.755                : en:Chapter 18
    01:25:15.110                : en:Chapter 19
    01:32:34.382                : en:Chapter 20

     

  • Peso: 4.72 GiB

Sinopsis

Descargar Nueva York sin salida (2019) Full HD 1080p Latino. Andre Davis (Chadwick Boseman) es un policía de Nueva york al que le encargan la investigación del asesinato de varios policías. Durante la búsqueda contrarreloj de los responsables, en la que se cierran por primera vez en la historia de Manhattan todos los puentes que acceden a ella, el detective descubre una conspiración en la que tendrá que discernir entre aquellos a los que caza y los sospechosos que están tratando de cazarle a él.

Ficha técnica

Video trailer de la película

Enlaces de descarga

Rip de Bluray

Descargar Nueva York sin salida (2019) Full HD 1080p Latino




Aportes de DPeliculasHDmega la pass es:dpeliculashdmega.org Aportes de CinemaniaHD la pass es:cinemaniahdd.com

Películas relacionadas

descargar Nueva York sin salida (2019) Full HD 1080p Latino Full 1080p 1080p gratis, Nueva York sin salida (2019) Full HD 1080p Latino Full 1080p mega 1 link, Nueva York sin salida (2019) Full HD 1080p Latino Full 1080p pelicula completa, descargar Nueva York sin salida (2019) Full HD 1080p Latino Full 1080p gratis en mega.

Nueva York sin salida (2019) Full HD 1080p Latino pelicula full hd, Nueva York sin salida (2019) Full HD 1080p Latino mega latino, Nueva York sin salida (2019) Full HD 1080p Latino 4k latino, Nueva York sin salida (2019) Full HD 1080p Latino pelicula completa, Nueva York sin salida (2019) Full HD 1080p Latino descargar gratis, descargar Nueva York sin salida (2019) Full HD 1080p Latino pelicula latino, Nueva York sin salida (2019) Full HD 1080p Latino 1 link mega, Nueva York sin salida (2019) Full HD 1080p Latino 1 link google drive, Nueva York sin salida (2019) Full HD 1080p Latino hd 1080p latino.
Comentarios 0