Nueva York sin salida (2019) 4K UHD HDR Latino

203 vistas
1 estrella2 estrellas3 estrellas4 estrellas5 estrellas (1 votos, promedio: 5,00 de 5)
Cargando...

Información de Nueva York sin salida (2019) 4K UHD HDR Latino

Datos de la película

  • Calidad: 4K HDR
  • Audio: Español Latino AC3 5.1 BLURAY - Ingles DTS 5.1 BLURAY
  • Subtitulos: Español Latino PGS - Ingles PGS
  • Resolución: 3840x1606p
  • Formato: MKV
  • Codec: HEVC
  • Encoder: CinefiloCool
  • Mediainfo: Clic para Mostrar Datos Ver
  • Nueva York sin salida (2019) UHD HDR Latino-CMHDD_Fix.mkv
    Format                      : Matroska
    Format version              : Version 4
    File size                   : 18.5 GiB
    Duration                    : 1 h 39 min
    Overall bit rate            : 26.4 Mb/s
    Movie name                  : 21 Bridges (2019) CinemaniaHDD.Net
    Encoded date                : UTC 2020-06-30 23:32:44
    Writing application         : mkvmerge v46.0.0 ('No Deeper Escape') 64-bit
    Writing library             : libebml v1.3.10 + libmatroska v1.5.2
    Attachments                 : CINEMANIAHD.png

    Video
    ID                          : 1
    Format                      : HEVC
    Format/Info                 : High Efficiency Video Coding
    Format profile              : Main 10@L5.1@High
    HDR format                  : SMPTE ST 2086, HDR10 compatible
    Codec ID                    : V_MPEGH/ISO/HEVC
    Duration                    : 1 h 39 min
    Bit rate                    : 24.3 Mb/s
    Width                       : 3 840 pixels
    Height                      : 1 606 pixels
    Display aspect ratio        : 2.40:1
    Frame rate mode             : Constant
    Frame rate                  : 24.000 FPS
    Color space                 : YUV
    Chroma subsampling          : 4:2:0 (Type 2)
    Bit depth                   : 10 bits
    Bits/(Pixel*Frame)          : 0.164
    Stream size                 : 17.0 GiB (92%)
    Title                       : 2160p HDR [Bluray]
    Writing library             : x265 3.3+33-04275ae58030:[Windows][MSVC 1900][64 bit] 10bit
    Encoding settings           : cpuid=1111039 / frame-threads=5 / numa-pools=36 / wpp / no-pmode / no-pme / no-psnr / no-ssim / log-level=2 / input-csp=1 / input-res=3840x1606 / interlace=0 / total-frames=143760 / level-idc=51 / high-tier=1 / uhd-bd=0 / ref=4 / no-allow-non-conformance / repeat-headers / annexb / aud / hrd / info / hash=0 / no-temporal-layers / no-open-gop / min-keyint=24 / keyint=250 / gop-lookahead=0 / bframes=4 / b-adapt=2 / b-pyramid / bframe-bias=0 / rc-lookahead=25 / lookahead-slices=4 / scenecut=40 / hist-scenecut=0 / radl=0 / no-splice / no-intra-refresh / ctu=64 / min-cu-size=8 / rect / no-amp / max-tu-size=32 / tu-inter-depth=1 / tu-intra-depth=1 / limit-tu=0 / rdoq-level=2 / dynamic-rd=0.00 / no-ssim-rd / signhide / no-tskip / nr-intra=0 / nr-inter=0 / no-constrained-intra / no-strong-intra-smoothing / max-merge=3 / limit-refs=3 / limit-modes / me=3 / subme=3 / merange=57 / temporal-mvp / no-frame-dup / no-hme / weightp / no-weightb / no-analyze-src-pics / deblock=-3:-3 / no-sao / no-sao-non-deblock / rd=4 / selective-sao=0 / no-early-skip / rskip / no-fast-intra / no-tskip-fast / no-cu-lossless / no-b-intra / no-splitrd-skip / rdpenalty=0 / psy-rd=2.00 / psy-rdoq=1.00 / no-rd-refine / no-lossless / cbqpoffs=0 / crqpoffs=0 / rc=crf / crf=14.5 / qcomp=0.60 / qpstep=4 / stats-write=0 / stats-read=0 / vbv-maxrate=160000 / vbv-bufsize=160000 / vbv-init=0.9 / crf-max=0.0 / crf-min=0.0 / ipratio=1.40 / pbratio=1.30 / aq-mode=2 / aq-strength=1.00 / cutree / zone-count=0 / no-strict-cbr / qg-size=32 / no-rc-grain / qpmax=69 / qpmin=0 / no-const-vbv / sar=1 / overscan=0 / videoformat=5 / range=0 / colorprim=9 / transfer=16 / colormatrix=9 / chromaloc=1 / chromaloc-top=2 / chromaloc-bottom=2 / display-window=0 / master-display=G(13250,34500)B(7500,3000)R(34000,16000)WP(15635,16450)L(10000000,50) / cll=766,466 / min-luma=0 / max-luma=1023 / log2-max-poc-lsb=8 / vui-timing-info / vui-hrd-info / slices=1 / no-opt-qp-pps / no-opt-ref-list-length-pps / no-multi-pass-opt-rps / scenecut-bias=0.05 / hist-threshold=0.01 / no-opt-cu-delta-qp / no-aq-motion / hdr10 / hdr10-opt / no-dhdr10-opt / no-idr-recovery-sei / analysis-reuse-level=0 / analysis-save-reuse-level=0 / analysis-load-reuse-level=0 / scale-factor=0 / refine-intra=0 / refine-inter=0 / refine-mv=1 / refine-ctu-distortion=0 / no-limit-sao / ctu-info=0 / no-lowpass-dct / refine-analysis-type=0 / copy-pic=1 / max-ausize-factor=1.0 / no-dynamic-refine / no-single-sei / no-hevc-aq / no-svt / no-field / qp-adaptation-range=1.00 / no-scenecut-aware-qpconformance-window-offsets / right=0 / bottom=0 / decoder-max-rate=0
    Default                     : Yes
    Forced                      : No
    Color range                 : Limited
    Color primaries             : BT.2020
    Transfer characteristics    : PQ
    Matrix coefficients         : BT.2020 non-constant
    Mastering display color pri : Display P3
    Mastering display luminance : min: 0.0050 cd/m2, max: 1000 cd/m2
    Maximum Content Light Level : 766 cd/m2
    Maximum Frame-Average Light : 466 cd/m2

    Audio #1
    ID                          : 2
    Format                      : AC-3
    Format/Info                 : Audio Coding 3
    Commercial name             : Dolby Digital
    Codec ID                    : A_AC3
    Duration                    : 1 h 39 min
    Bit rate mode               : Constant
    Bit rate                    : 640 kb/s
    Channel(s)                  : 6 channels
    Channel layout              : L R C LFE Ls Rs
    Sampling rate               : 48.0 kHz
    Frame rate                  : 31.250 FPS (1536 SPF)
    Compression mode            : Lossy
    Stream size                 : 458 MiB (2%)
    Title                       : Español Latino [CinemaniaHDD]
    Language                    : Spanish
    Service kind                : Complete Main
    Default                     : Yes
    Forced                      : No

    Audio #2
    ID                          : 3
    Format                      : DTS
    Format/Info                 : Digital Theater Systems
    Codec ID                    : A_DTS
    Duration                    : 1 h 39 min
    Bit rate mode               : Constant
    Bit rate                    : 1 509 kb/s
    Channel(s)                  : 6 channels
    Channel layout              : C L R Ls Rs LFE
    Sampling rate               : 48.0 kHz
    Frame rate                  : 93.750 FPS (512 SPF)
    Bit depth                   : 24 bits
    Compression mode            : Lossy
    Stream size                 : 1.05 GiB (6%)
    Title                       : Ingles [CinemaniaHDD]
    Language                    : English
    Default                     : No
    Forced                      : No

    Text #1
    ID                          : 4
    Format                      : PGS
    Muxing mode                 : zlib
    Codec ID                    : S_HDMV/PGS
    Codec ID/Info               : Picture based subtitle format used on BDs/HD-DVDs
    Duration                    : 1 h 38 min
    Bit rate                    : 26.2 kb/s
    Count of elements           : 2204
    Stream size                 : 18.5 MiB (0%)
    Title                       : Sub_Esp [PGS]
    Language                    : Spanish
    Default                     : No
    Forced                      : No

    Text #2
    ID                          : 5
    Format                      : PGS
    Muxing mode                 : zlib
    Codec ID                    : S_HDMV/PGS
    Codec ID/Info               : Picture based subtitle format used on BDs/HD-DVDs
    Duration                    : 1 h 30 min
    Bit rate                    : 36.8 kb/s
    Count of elements           : 2504
    Stream size                 : 23.9 MiB (0%)
    Title                       : Sub_Eng [PGS]
    Language                    : English
    Default                     : No
    Forced                      : No

    Text #3
    ID                          : 6
    Format                      : UTF-8
    Codec ID                    : S_TEXT/UTF8
    Codec ID/Info               : UTF-8 Plain Text
    Duration                    : 1 h 13 min
    Bit rate                    : 0 b/s
    Count of elements           : 16
    Stream size                 : 311 Bytes (0%)
    Title                       : Sub_Forzados
    Language                    : Spanish
    Default                     : Yes
    Forced                      : No

    Text #4
    ID                          : 7
    Format                      : UTF-8
    Codec ID                    : S_TEXT/UTF8
    Codec ID/Info               : UTF-8 Plain Text
    Duration                    : 1 h 38 min
    Bit rate                    : 43 b/s
    Count of elements           : 1101
    Stream size                 : 31.4 KiB (0%)
    Title                       : Sub_Esp
    Language                    : Spanish
    Default                     : No
    Forced                      : No

    Menu
    00:00:00.000                : en:Chapter 01
    00:08:55.208                : en:Chapter 02
    00:21:38.292                : en:Chapter 03
    00:29:48.333                : en:Chapter 04
    00:39:11.417                : en:Chapter 05
    00:48:50.167                : en:Chapter 06
    00:59:36.458                : en:Chapter 07
    01:07:52.750                : en:Chapter 08
    01:16:05.375                : en:Chapter 09
    01:28:48.458                : en:Chapter 10

     

  • Peso: 18.5 GiB

Sinopsis

Descargar Nueva York sin salida (2019) 4K UHD HDR Latino. Andre Davis (Chadwick Boseman) es un policía de Nueva york al que le encargan la investigación del asesinato de varios policías. Durante la búsqueda contrarreloj de los responsables, en la que se cierran por primera vez en la historia de Manhattan todos los puentes que acceden a ella, el detective descubre una conspiración en la que tendrá que discernir entre aquellos a los que caza y los sospechosos que están tratando de cazarle a él.

Ficha técnica

Video trailer de la película

Enlaces de descarga

Rip de Bluray

Descargar Nueva York sin salida (2019) 4K UHD HDR Latino




Aportes de DPeliculasHDmega la pass es:dpeliculashdmega.org Aportes de CinemaniaHD la pass es:cinemaniahdd.com
Guardado en : 4K HDR , 4K UHD , Acción , Crimen , Drama

Películas relacionadas

  • Glory (1989) Full HD 1080p Latino – CMHDD

    Glory (1989) Full HD 1080p Latino – CMHDD

    1989
    Glory (1989) Full HD 1080p Latino – CMHDD

    0.0 2h 2m 1989

    A principios de la Guerra de Secesión, el ejército del norte se mostraba reticente a dar armas a los...

    Director: Skip Cosper

    Género: Bélica

    Actores: William Mathis

  • Glory (1989) REMUX 1080p Latino – CMHDD

    Glory (1989) REMUX 1080p Latino – CMHDD

    1989
    Glory (1989) REMUX 1080p Latino – CMHDD

    0.0 2h 2m 1989

    A principios de la Guerra de Secesión, el ejército del norte se mostraba reticente a dar armas a los...

    Director: Skip Cosper

    Género: Bélica

    Actores: William Mathis

  • El niño con el pijama de rayas (2008) 1080p Latino

    El niño con el pijama de rayas (2008) 1080p Latino

    2008
    El niño con el pijama de rayas (2008) 1080p Latino

    0.0 1h 34m 2008

    Descargar El niño con el pijama de rayas (2008) 1080p Latino. Berlín, 1942. Bruno tiene ocho años...

    Director: Mark Herman

    Género: Bélica

    Actores: Zsuzsa Holl

Nueva York sin salida (2019) 4K UHD HDR Latino pelicula full hd, Nueva York sin salida (2019) 4K UHD HDR Latino mega latino, Nueva York sin salida (2019) 4K UHD HDR Latino 4k latino, Nueva York sin salida (2019) 4K UHD HDR Latino pelicula completa, Nueva York sin salida (2019) 4K UHD HDR Latino descargar gratis, descargar Nueva York sin salida (2019) 4K UHD HDR Latino pelicula latino, Nueva York sin salida (2019) 4K UHD HDR Latino 1 link mega, Nueva York sin salida (2019) 4K UHD HDR Latino 1 link google drive, Nueva York sin salida (2019) 4K UHD HDR Latino hd 1080p latino.
Comentarios 0