2012 (2009) REMUX 1080p Latino – CMHDD

68 vistas
1 estrella2 estrellas3 estrellas4 estrellas5 estrellas (Ninguna valoración todavía)
Cargando...

Información de 2012 (2009) REMUX 1080p Latino – CMHDD

Datos de la película

  • Calidad: Full 1080p
  • Audio: Se especifica abajo de la Sinopsis
  • Subtitulos: Español Latino SRT- FORZADOS SRT
  • Resolución: 1920x1080p
  • Formato: MKV
  • Codec: H.264
  • Encoder: Dracarys
  • Mediainfo: Clic para Mostrar Datos Ver
  • Format                      : Matroska
    Format version              : Version 4
    File size                   : 30.2 GiB
    Duration                    : 2 h 38 min
    Overall bit rate mode       : Variable
    Overall bit rate            : 27.4 Mb/s
    Movie name                  : 2012 (2009) REMUX 1080p Latino - CMHDD
    Encoded date                : UTC 2021-01-20 01:22:34
    Writing application         : mkvmerge v51.0.0 ('I Wish') 64-bit
    Writing library             : libebml v1.4.0 + libmatroska v1.6.2

    Video
    ID                          : 1
    Format                      : AVC
    Format/Info                 : Advanced Video Codec
    Format profile              : High@L4.1
    Format settings             : CABAC / 4 Ref Frames
    Format settings, CABAC      : Yes
    Format settings, Reference  : 4 frames
    Codec ID                    : V_MPEG4/ISO/AVC
    Duration                    : 2 h 37 min
    Bit rate mode               : Variable
    Bit rate                    : 22.0 Mb/s
    Maximum bit rate            : 33.0 Mb/s
    Width                       : 1 920 pixels
    Height                      : 1 080 pixels
    Display aspect ratio        : 16:9
    Frame rate mode             : Constant
    Frame rate                  : 23.976 (24000/1001) FPS
    Color space                 : YUV
    Chroma subsampling          : 4:2:0
    Bit depth                   : 8 bits
    Scan type                   : Progressive
    Bits/(Pixel*Frame)          : 0.442
    Stream size                 : 24.2 GiB (80%)
    Default                     : Yes
    Forced                      : No
    Color range                 : Limited
    Color primaries             : BT.709
    Transfer characteristics    : BT.709
    Matrix coefficients         : BT.709

    Audio #1
    ID                          : 2
    Format                      : E-AC-3
    Format/Info                 : Enhanced AC-3
    Commercial name             : Dolby Digital Plus
    Codec ID                    : A_EAC3
    Duration                    : 2 h 38 min
    Bit rate mode               : Constant
    Bit rate                    : 640 kb/s
    Channel(s)                  : 6 channels
    Channel layout              : L R C LFE Ls Rs
    Sampling rate               : 48.0 kHz
    Frame rate                  : 31.250 FPS (1536 SPF)
    Compression mode            : Lossy
    Stream size                 : 724 MiB (2%)
    Language                    : Spanish
    Service kind                : Complete Main
    Default                     : Yes
    Forced                      : No

    Audio #2
    ID                          : 3
    Format                      : AC-3
    Format/Info                 : Audio Coding 3
    Commercial name             : Dolby Digital
    Codec ID                    : A_AC3
    Duration                    : 2 h 38 min
    Bit rate mode               : Constant
    Bit rate                    : 640 kb/s
    Channel(s)                  : 6 channels
    Channel layout              : L R C LFE Ls Rs
    Sampling rate               : 48.0 kHz
    Frame rate                  : 31.250 FPS (1536 SPF)
    Compression mode            : Lossy
    Stream size                 : 724 MiB (2%)
    Language                    : Spanish
    Service kind                : Complete Main
    Default                     : No
    Forced                      : No

    Audio #3
    ID                          : 4
    Format                      : DTS XLL
    Format/Info                 : Digital Theater Systems
    Commercial name             : DTS-HD Master Audio
    Codec ID                    : A_DTS
    Duration                    : 2 h 37 min
    Bit rate mode               : Variable
    Bit rate                    : 4 167 kb/s
    Channel(s)                  : 6 channels
    Channel layout              : C L R Ls Rs LFE
    Sampling rate               : 48.0 kHz
    Frame rate                  : 93.750 FPS (512 SPF)
    Bit depth                   : 24 bits
    Compression mode            : Lossless
    Stream size                 : 4.59 GiB (15%)
    Language                    : English
    Default                     : No
    Forced                      : No

    Text #1
    ID                          : 5
    Format                      : UTF-8
    Codec ID                    : S_TEXT/UTF8
    Codec ID/Info               : UTF-8 Plain Text
    Duration                    : 2 h 36 min
    Bit rate                    : 53 b/s
    Count of elements           : 1900
    Stream size                 : 61.4 KiB (0%)
    Language                    : Spanish
    Default                     : No
    Forced                      : No

    Text #2
    ID                          : 6
    Format                      : UTF-8
    Codec ID                    : S_TEXT/UTF8
    Codec ID/Info               : UTF-8 Plain Text
    Duration                    : 2 h 21 min
    Bit rate                    : 2 b/s
    Count of elements           : 105
    Stream size                 : 2.74 KiB (0%)
    Language                    : Spanish
    Default                     : No
    Forced                      : No

    Text #3
    ID                          : 7
    Format                      : PGS
    Muxing mode                 : zlib
    Codec ID                    : S_HDMV/PGS
    Codec ID/Info               : Picture based subtitle format used on BDs/HD-DVDs
    Duration                    : 2 h 36 min
    Bit rate                    : 31.2 kb/s
    Count of elements           : 3803
    Stream size                 : 34.9 MiB (0%)
    Language                    : Spanish
    Default                     : No
    Forced                      : No

    Text #4
    ID                          : 8
    Format                      : PGS
    Muxing mode                 : zlib
    Codec ID                    : S_HDMV/PGS
    Codec ID/Info               : Picture based subtitle format used on BDs/HD-DVDs
    Duration                    : 2 h 21 min
    Bit rate                    : 2 195 b/s
    Count of elements           : 228
    Stream size                 : 2.23 MiB (0%)
    Language                    : Spanish
    Default                     : Yes
    Forced                      : No

  • Peso: 30.2 GiB

Sinopsis

El geólogo Adrian Helmsley, descubre de que el núcleo de la Tierra se está calentando. Teme que la corteza se vuelva inestable, coincidiendo con las predicciones mayas del fin del mundo. Entre tanto, los líderes del mundo «venden» plazas para escapar del cataclismo. El escritor Curtis Jackson tropieza con esa información… y luchará por salvar a su familia mientras el suelo se hunde bajo sus pies, y los terremotos y las erupciones volcánicas destruyen el mundo tal y como lo conocemos. @fer__mero

Latino: E-AC3+AC3 5.1 [640 kb/s]  – Ingles: DTS-HD MA 5.1

Ficha técnica

Video trailer de la película

Enlaces de descarga

Rip de Bluray

Descargar 2012 (2009) REMUX 1080p Latino – CMHDD


Aportes de DPeliculasHDmega la pass es:dpeliculashdmega.org Aportes de CinemaniaHD la pass es:cinemaniahdd.com
Guardado en : Acción , Aventura , Ciencia ficción

Películas relacionadas

  • Sentinelle (2021) NF WEB-DL 1080p Latino

    Sentinelle (2021) NF WEB-DL 1080p Latino

    2021
    Sentinelle (2021) NF WEB-DL 1080p Latino

    5.0 1h 20m 2021

    De regreso en su casa tras una traumática misión de combate, una soldado altamente capacitada emplea...

    Director: Julien Leclercq

    Género: Acción

    Actores: Olga Kurylenko

  • La Familia De Pie Grande (2020) HD 1080p Latino

    La Familia De Pie Grande (2020) HD 1080p Latino

    2020
    La Familia De Pie Grande (2020) HD 1080p Latino

    0.0 1h 36m 2020

    Descargar La Familia De Pie Grande (2020) HD 1080p Latino. Bigfoot, el padre de Adam, quiere utilizar...

    Director: Jérémie Degruson

    Género: Animación

    Actores: Xavier Fagnon

2012 (2009) REMUX 1080p Latino – CMHDD pelicula full hd, 2012 (2009) REMUX 1080p Latino – CMHDD mega latino, 2012 (2009) REMUX 1080p Latino – CMHDD 4k latino, 2012 (2009) REMUX 1080p Latino – CMHDD pelicula completa, 2012 (2009) REMUX 1080p Latino – CMHDD descargar gratis, descargar 2012 (2009) REMUX 1080p Latino – CMHDD pelicula latino, 2012 (2009) REMUX 1080p Latino – CMHDD 1 link mega, 2012 (2009) REMUX 1080p Latino – CMHDD 1 link google drive, 2012 (2009) REMUX 1080p Latino – CMHDD hd 1080p latino.
Comentarios 2
  • The Principal - 05 febrero, 2021

    Hola….Para cuando se puede descargar..????…Gracias!

    • Dracarys - 05 febrero, 2021

      Solo para VIP