2001 odisea del espacio (1968) Full 1080p Latino

2.366 vistas
1 estrella2 estrellas3 estrellas4 estrellas5 estrellas (6 votos, promedio: 5,00 de 5)
Cargando…

Información de 2001 odisea del espacio (1968) Full 1080p Latino

Datos de la película

  • Calidad: Full 1080p
  • Audio: Español Latino AC3 5.1 BLURAY - Ingles AC3 5.1 BLURAY
  • Subtitulos: Español Latino PGS - Ingles PGS
  • Resolución: 1920x1080p
  • Formato: MKV
  • Codec: H.264
  • Encoder: Dracarys
  • Mediainfo: Clic para Mostrar Datos Ver
  • Format                                   : Matroska
    Format version                           : Version 4 / Version 2
    File size                                : 4.92 GiB
    Duration                                 : 2 h 28 min
    Overall bit rate                         : 4 732 kb/s
    Movie name                               : CinemaniaHDD.com
    Encoded date                             : UTC 2018-04-19 18:13:26 / UTC 2018-04-19T14:13:07Z
    Writing application                      : mkvmerge v15.0.0 ('Duel with the Devil') 64-bit
    Writing library                          : libebml v1.3.5 + libmatroska v1.4.5 / Lavf57.7.2

    Video
    ID                                       : 1
    Format                                   : AVC
    Format/Info                              : Advanced Video Codec
    Format profile                           : [email protected]
    Format settings                          : CABAC / 4 Ref Frames
    Format settings, CABAC                   : Yes
    Format settings, RefFrames               : 4 frames
    Codec ID                                 : V_MPEG4/ISO/AVC
    Duration                                 : 2 h 28 min
    Bit rate                                 : 3 741 kb/s
    Width                                    : 1 920 pixels
    Height                                   : 1 080 pixels
    Display aspect ratio                     : 16:9
    Frame rate mode                          : Constant
    Frame rate                               : 23.976 (24000/1001) FPS
    Color space                              : YUV
    Chroma subsampling                       : 4:2:0
    Bit depth                                : 8 bits
    Scan type                                : Progressive
    Bits/(Pixel*Frame)                       : 0.075
    Stream size                              : 3.89 GiB (79%)
    Title                                    : 2001 odisea del espacio (1968) Full 1080p Latino
    Writing library                          : x264 core 148 r2708 86b7198
    Encoding settings                        : cabac=1 / ref=4 / deblock=1:0:0 / analyse=0x3:0x133 / me=esa / subme=9 / psy=1 / psy_rd=1.00:0.00 / mixed_ref=1 / me_range=16 / chroma_me=1 / trellis=2 / 8x8dct=1 / cqm=0 / deadzone=21,11 / fast_pskip=1 / chroma_qp_offset=-2 / threads=34 / lookahead_threads=2 / sliced_threads=0 / nr=0 / decimate=1 / interlaced=0 / bluray_compat=0 / constrained_intra=0 / bframes=3 / b_pyramid=2 / b_adapt=2 / b_bias=0 / direct=3 / weightb=1 / open_gop=0 / weightp=2 / keyint=240 / keyint_min=24 / scenecut=40 / intra_refresh=0 / rc_lookahead=60 / rc=crf / mbtree=1 / crf=20.0 / qcomp=0.60 / qpmin=0 / qpmax=69 / qpstep=4 / vbv_maxrate=62500 / vbv_bufsize=78125 / crf_max=0.0 / nal_hrd=none / filler=0 / ip_ratio=1.40 / aq=1:1.00
    Language                                 : English
    Default                                  : Yes
    Forced                                   : No
    Color range                              : Limited
    Color primaries                          : BT.709
    Transfer characteristics                 : BT.709
    Matrix coefficients                      : BT.709
    Statistics Tags Issue                    : mkvmerge v15.0.0 ('Duel with the Devil') 64-bit 2018-04-19 18:13:26 / mkvmerge v15.0.0 ('Duel with the Devil') 64-bit 2018-04-19 18:13:26 / UTC 2018-04-19T14:13:07Z
    FromStats_BitRate                        : 3821894
    FromStats_Duration                       : 02:28:51.673000000
    FromStats_FrameCount                     : 214146
    FromStats_StreamSize                     : 4266989416

    Audio #1
    ID                                       : 2
    Format                                   : AC-3
    Format/Info                              : Audio Coding 3
    Format settings, Endianness              : Big
    Codec ID                                 : A_AC3
    Duration                                 : 2 h 28 min
    Bit rate mode                            : Constant
    Bit rate                                 : 448 kb/s
    Channel(s)                               : 6 channels
    Channel positions                        : Front: L C R, Side: L R, LFE
    Sampling rate                            : 48.0 kHz
    Frame rate                               : 31.250 FPS (1536 SPF)
    Bit depth                                : 16 bits
    Compression mode                         : Lossy
    Stream size                              : 477 MiB (9%)
    Language                                 : Spanish
    Service kind                             : Complete Main
    Default                                  : Yes
    Forced                                   : No
    Statistics Tags Issue                    : mkvmerge v15.0.0 ('Duel with the Devil') 64-bit 2018-04-19 18:13:26 / mkvmerge v15.0.0 ('Duel with the Devil') 64-bit 2018-04-19 18:13:26 / UTC 2018-04-19T14:13:07Z
    FromStats_BitRate                        : 448000
    FromStats_Duration                       : 02:28:51.680000000
    FromStats_FrameCount                     : 279115
    FromStats_StreamSize                     : 500174080

    Audio #2
    ID                                       : 3
    Format                                   : AC-3
    Format/Info                              : Audio Coding 3
    Format settings, Endianness              : Big
    Codec ID                                 : A_AC3
    Duration                                 : 2 h 28 min
    Bit rate mode                            : Constant
    Bit rate                                 : 448 kb/s
    Channel(s)                               : 6 channels
    Channel positions                        : Front: L C R, Side: L R, LFE
    Sampling rate                            : 48.0 kHz
    Frame rate                               : 31.250 FPS (1536 SPF)
    Bit depth                                : 16 bits
    Compression mode                         : Lossy
    Stream size                              : 477 MiB (9%)
    Language                                 : English
    Service kind                             : Complete Main
    Default                                  : No
    Forced                                   : No
    Statistics Tags Issue                    : mkvmerge v15.0.0 ('Duel with the Devil') 64-bit 2018-04-19 18:13:26 / mkvmerge v15.0.0 ('Duel with the Devil') 64-bit 2018-04-19 18:13:26 / UTC 2018-04-19T14:13:07Z
    FromStats_BitRate                        : 448000
    FromStats_Duration                       : 02:28:51.680000000
    FromStats_FrameCount                     : 279115
    FromStats_StreamSize                     : 500174080

    Text #1
    ID                                       : 4
    Format                                   : PGS
    Muxing mode                              : zlib
    Codec ID                                 : S_HDMV/PGS
    Codec ID/Info                            : Picture based subtitle format used on BDs/HD-DVDs
    Language                                 : English
    Default                                  : No
    Forced                                   : No
    Statistics Tags Issue                    : mkvmerge v15.0.0 ('Duel with the Devil') 64-bit 2018-04-19 18:13:26 / mkvmerge v15.0.0 ('Duel with the Devil') 64-bit 2018-04-19 18:13:26 / UTC 2018-04-19T14:13:07Z
    FromStats_BitRate                        : 16711
    FromStats_Duration                       : 01:58:42.616000000
    FromStats_FrameCount                     : 1284
    FromStats_StreamSize                     : 14878413

    Text #2
    ID                                       : 5
    Format                                   : PGS
    Muxing mode                              : zlib
    Codec ID                                 : S_HDMV/PGS
    Codec ID/Info                            : Picture based subtitle format used on BDs/HD-DVDs
    Language                                 : Spanish
    Default                                  : No
    Forced                                   : No
    Statistics Tags Issue                    : mkvmerge v15.0.0 ('Duel with the Devil') 64-bit 2018-04-19 18:13:26 / mkvmerge v15.0.0 ('Duel with the Devil') 64-bit 2018-04-19 18:13:26 / UTC 2018-04-19T14:13:07Z
    FromStats_BitRate                        : 12116
    FromStats_Duration                       : 02:20:15.157000000
    FromStats_FrameCount                     : 1272
    FromStats_StreamSize                     : 12745238

    Menu
    00:00:00.000                             : :Chapter 1
    00:02:57.177                             : :Chapter 2
    00:04:39.112                             : :Chapter 3
    00:11:40.033                             : :Chapter 4
    00:16:58.017                             : :Chapter 5
    00:19:53.025                             : :Chapter 6
    00:25:29.028                             : :Chapter 7
    00:27:38.157                             : :Chapter 8
    00:29:29.601                             : :Chapter 9
    00:33:46.024                             : :Chapter 10
    00:41:08.633                             : :Chapter 11
    00:45:37.568                             : :Chapter 12
    00:50:56.554                             : :Chapter 13
    00:54:42.488                             : :Chapter 14
    00:58:33.677                             : :Chapter 15
    01:03:55.999                             : :Chapter 16
    01:06:05.295                             : :Chapter 17
    01:12:10.660                             : :Chapter 18
    01:18:51.894                             : :Chapter 19
    01:23:01.477                             : :Chapter 20
    01:27:02.217                             : :Chapter 21
    01:27:49.264                             : :Chapter 22
    01:30:07.736                             : :Chapter 23
    01:32:50.899                             : :Chapter 24
    01:38:35.576                             : :Chapter 25
    01:40:47.083                             : :Chapter 26
    01:45:35.496                             : :Chapter 27
    01:49:41.575                             : :Chapter 28
    01:55:19.746                             : :Chapter 29
    01:57:06.186                             : :Chapter 30
    02:01:28.281                             : :Chapter 31
    02:11:33.386                             : :Chapter 32
    02:17:57.603                             : :Chapter 33
    02:20:33.425                             : :Chapter 34

  • Peso: 4.92 GiB

Sinopsis

La historia de la humanidad, en diversos estadios del pasado y del futuro, es narrada en la película de ciencia-ficción de culto por excelencia de la historia del cine. Hace millones de años, en los albores del nacimiento del homo sapiens, unos simios descubren un monolito que les lleva a un estadio de inteligencia superior. Otro monolito vuelve a aparecer, millones de años después, enterrado en una luna, lo que provoca el interés de los científicos humanos. Por último, HAL 9000, una máquina de inteligencia artificial, es la encargada de todos los sistemas de una nave espacial tripulada durante una misión de la NASA.

Ficha técnica

Video trailer de la película

Enlaces de descarga

Rip de Bluray

Descargar 2001 odisea del espacio (1968) Full 1080p Latino




Aportes de DPeliculasHDmega la pass es:dpeliculashdmega.org Aportes de CinemaniaHD la pass es:cinemaniahdd.com

Películas relacionadas

  • The Dead Lands (2014) 1080p Latino

    2014
    The Dead Lands (2014) 1080p Latino

    0.0 1h 47m 2014

    Tras presenciar cómo su familia es masacrada, Hongi, adolescente hijo de jefe tribal, acudirá a la...

    Director: Toa Fraser

    Género: Acción

    Actores: Xavier Horan

  • Terremoto (2018) Full 1080p Subtitulado

    2018
    Terremoto (2018) Full 1080p Subtitulado

    3.7 1h 46m 2018

    En 1904, un terremoto de magnitud 5,4 sacudió Oslo con el epicentro en “Oslo Graben” bajo la capital...

    Director: John Andreas Andersen

    Género: Aventura

    Actores: Tina Schei

  • Bumblebee (2018) 1080p Latino

    2018
    Bumblebee (2018) 1080p Latino

    5.0 1h 54m 2018

    Sexta entrega de la saga 'Transformers', esta vez centrada en el "hermano pequeño" de los Autobots,...

    Director: Travis Knight

    Género: Acción

    Actores: Yianni Apostolopolous

  • Bumbeblee (2018) Web-DL 4K HDR 2160p Latino

    2018
    Bumbeblee (2018) Web-DL 4K HDR 2160p Latino

    5.0 1h 54m 2018

    Sexta entrega de la saga 'Transformers', esta vez centrada en el "hermano pequeño" de los Autobots,...

    Director: Travis Knight

    Género: Acción

    Actores: Yianni Apostolopolous

Comentarios 1
  • Astral - 21 abril, 2018

    Excelente, justo a tiempo para el aniversario! Gracias por la aportacion