×

¿Problemas para descargar con Mozilla, EDGE? Deshabilita la opción "Abrir vinculos en una pestaña nueva" tal como lo muestra ésta imagen.

2001 A Space Odyssey (1968) REMUX 4K HDR Latino – CMHDD

220 vistas

Información de 2001 A Space Odyssey (1968) REMUX 4K HDR Latino – CMHDD

Datos de la película

  • Calidad: 4K HDR
  • Audio: Español Latino AC3 2.0 BLURAY - Ingles DTS 5.1 BLURAY
  • Subtitulos: Español Latino PGS
  • Resolución: 3840x2160p
  • Formato: MKV
  • Codec: H.264
  • Encoder: DRacarys
  • Mediainfo: Clic para Mostrar Datos Ver
  • Format                      : Matroska
    Format version              : Version 4
    File size                   : 67.6 GiB
    Duration                    : 2 h 28 min
    Overall bit rate mode       : Variable
    Overall bit rate            : 65.0 Mb/s
    Movie name                  : 2001: A Space Odyssey (1968) REMUX 4K HDR Latino - CMHDD
    Encoded date                : UTC 2023-08-26 03:00:29
    Writing application         : mkvmerge v47.0.0 ('Black Flag') 64-bit
    Writing library             : libebml v1.3.10 + libmatroska v1.5.2
    Cover                       : Yes
    Attachments                 : cover.jpg

    Video
    ID                          : 1
    ID in the original source m : 4113 (0x1011)
    Format                      : HEVC
    Format/Info                 : High Efficiency Video Coding
    Format profile              : Main 10@L5.1@High
    HDR format                  : SMPTE ST 2086, HDR10 compatible
    Codec ID                    : V_MPEGH/ISO/HEVC
    Duration                    : 2 h 28 min
    Bit rate                    : 62.2 Mb/s
    Width                       : 3 840 pixels
    Height                      : 2 160 pixels
    Display aspect ratio        : 16:9
    Frame rate mode             : Constant
    Frame rate                  : 23.976 (24000/1001) FPS
    Color space                 : YUV
    Chroma subsampling          : 4:2:0 (Type 2)
    Bit depth                   : 10 bits
    Bits/(Pixel*Frame)          : 0.313
    Stream size                 : 64.6 GiB (96%)
    Default                     : Yes
    Forced                      : No
    Color range                 : Limited
    Color primaries             : BT.2020
    Transfer characteristics    : PQ
    Matrix coefficients         : BT.2020 non-constant
    Mastering display color pri : BT.2020
    Mastering display luminance : min: 0.0050 cd/m2, max: 1000 cd/m2
    Maximum Content Light Level : 992 cd/m2
    Maximum Frame-Average Light : 282 cd/m2
    Original source medium      : Blu-ray

    Audio #1
    ID                          : 2
    ID in the original source m : 4352 (0x1100)
    Format                      : DTS XLL
    Format/Info                 : Digital Theater Systems
    Commercial name             : DTS-HD Master Audio
    Codec ID                    : A_DTS
    Duration                    : 2 h 28 min
    Bit rate mode               : Variable
    Bit rate                    : 2 197 kb/s
    Channel(s)                  : 6 channels
    Channel layout              : C L R Ls Rs LFE
    Sampling rate               : 48.0 kHz
    Frame rate                  : 93.750 FPS (512 SPF)
    Bit depth                   : 16 bits
    Compression mode            : Lossless
    Stream size                 : 2.28 GiB (3%)
    Language                    : English
    Default                     : No
    Forced                      : No
    Original source medium      : Blu-ray

    Audio #2
    ID                          : 3
    ID in the original source m : 4353 (0x1101)
    Format                      : AC-3
    Format/Info                 : Audio Coding 3
    Commercial name             : Dolby Digital
    Codec ID                    : A_AC3
    Duration                    : 2 h 28 min
    Bit rate mode               : Constant
    Bit rate                    : 192 kb/s
    Channel(s)                  : 2 channels
    Channel layout              : L R
    Sampling rate               : 48.0 kHz
    Frame rate                  : 31.250 FPS (1536 SPF)
    Compression mode            : Lossy
    Delay relative to video     : 14 ms
    Stream size                 : 204 MiB (0%)
    Language                    : English
    Service kind                : Complete Main
    Default                     : No
    Forced                      : No
    Original source medium      : Blu-ray

    Audio #3
    ID                          : 4
    ID in the original source m : 4358 (0x1106)
    Format                      : AC-3
    Format/Info                 : Audio Coding 3
    Commercial name             : Dolby Digital
    Codec ID                    : A_AC3
    Duration                    : 2 h 28 min
    Bit rate mode               : Constant
    Bit rate                    : 448 kb/s
    Channel(s)                  : 6 channels
    Channel layout              : L R C LFE Ls Rs
    Sampling rate               : 48.0 kHz
    Frame rate                  : 31.250 FPS (1536 SPF)
    Compression mode            : Lossy
    Delay relative to video     : 14 ms
    Stream size                 : 477 MiB (1%)
    Language                    : Spanish
    Service kind                : Complete Main
    Default                     : Yes
    Forced                      : No
    Original source medium      : Blu-ray

    Text
    ID                          : 5
    ID in the original source m : 4777 (0x12A9)
    Format                      : PGS
    Muxing mode                 : zlib
    Codec ID                    : S_HDMV/PGS
    Codec ID/Info               : Picture based subtitle format used on BDs/HD-DVDs
    Duration                    : 2 h 20 min
    Bit rate                    : 12.1 kb/s
    Frame rate                  : 0.151 FPS
    Count of elements           : 1272
    Stream size                 : 12.1 MiB (0%)
    Language                    : Spanish
    Default                     : No
    Forced                      : No
    Original source medium      : Blu-ray

    Menu
    00:00:00.000                : en:Capítulo 01
    00:02:55.175                : en:Capítulo 02
    00:04:37.110                : en:Capítulo 03
    00:11:37.863                : en:Capítulo 04
    00:16:55.889                : en:Capítulo 05
    00:19:50.939                : en:Capítulo 06
    00:25:27.359                : en:Capítulo 07
    00:27:36.071                : en:Capítulo 08
    00:29:27.432                : en:Capítulo 09
    00:33:44.772                : en:Capítulo 10
    00:41:06.630                : en:Capítulo 11
    00:45:35.399                : en:Capítulo 12
    00:50:54.551                : en:Capítulo 13
    00:54:39.943                : en:Capítulo 14
    00:58:31.633                : en:Capítulo 15
    01:03:53.955                : en:Capítulo 16
    01:06:03.209                : en:Capítulo 17
    01:12:08.574                : en:Capítulo 18
    01:18:49.766                : en:Capítulo 19
    01:22:59.432                : en:Capítulo 20
    01:27:00.131                : en:Capítulo 21
    01:27:47.262                : en:Capítulo 22
    01:30:05.733                : en:Capítulo 23
    01:32:48.771                : en:Capítulo 24
    01:38:33.490                : en:Capítulo 25
    01:40:44.997                : en:Capítulo 26
    01:45:33.452                : en:Capítulo 27
    01:49:39.447                : en:Capítulo 28
    01:55:17.577                : en:Capítulo 29
    01:57:04.017                : en:Capítulo 30
    02:01:26.112                : en:Capítulo 31
    02:11:31.300                : en:Capítulo 32
    02:17:55.517                : en:Capítulo 33
    02:20:31.423                : en:Capítulo 34

  • Peso: 67.6 GiB

Sinopsis

Hace millones de años, en los albores del nacimiento del homo sapiens, unos simios descubren un monolito que les lleva a un estadio de inteligencia superior. Otro monolito vuelve a aparecer, millones de años después, enterrado en una luna, lo que provoca el interés de los científicos humanos. Por último, HAL 9000, una máquina de inteligencia artificial, es la encargada de todos los sistemas de una nave espacial tripulada durante una misión de la NASA.

Ficha técnica

Video trailer de la película

Enlaces de descarga

Rip de Bluray

Descargar 2001 A Space Odyssey (1968) REMUX 4K HDR Latino – CMHDD


Aportes de DPeliculasHDmega la pass es:dpeliculashdmega.org Aportes de CinemaniaHD la pass es:cinemaniahdd.com Aportes recientes:cinemaniahdd.net

Películas relacionadas

  • Recuerdos Mortales (2024) WEB-DL 1080p Latino

    Recuerdos Mortales (2024) WEB-DL 1080p Latino

    2024
    Recuerdos Mortales (2024) WEB-DL 1080p Latino

    1h 52m 2024

    Descargar Recuerdos Mortales (2024) WEB-DL 1080p Latino. Después de someterse a un tratamiento de vanguardia...

    Director: Adam Cooper

    Género: Crimen

    Actores: Tommy Flanagan

  • The Shift (2023) AMZN WEB-DL 1080p Latino

    The Shift (2023) AMZN WEB-DL 1080p Latino

    2023
    The Shift (2023) AMZN WEB-DL 1080p Latino

    1h 53m 2023

    Descargar The Shift (2023) AMZN WEB-DL 1080p Latino. Kevin viaja a través de los mundos para reunirse...

    Director: Brock Heasley

    Género: Ciencia ficción

    Actores: Teck

  • Godzilla: Minus One (2023) 1080p SUB-CMHDD

    Godzilla: Minus One (2023) 1080p SUB-CMHDD

    2023
    Godzilla: Minus One (2023) 1080p SUB-CMHDD

    2h 5m 2023

    Descargar Godzilla: Minus One (2023) 1080p SUB-CMHDD. En el Japón de la posguerra surge un nuevo terror....

    Director: 山崎貴

    Género: Acción

    Actores: 鶴田翔

descargar 2001 A Space Odyssey (1968) REMUX 4K HDR Latino – CMHDD 4K HDR 1080p gratis, 2001 A Space Odyssey (1968) REMUX 4K HDR Latino – CMHDD 4K HDR mega 1 link, 2001 A Space Odyssey (1968) REMUX 4K HDR Latino – CMHDD 4K HDR pelicula completa, descargar 2001 A Space Odyssey (1968) REMUX 4K HDR Latino – CMHDD 4K HDR gratis en mega.

2001 A Space Odyssey (1968) REMUX 4K HDR Latino – CMHDD pelicula full hd, 2001 A Space Odyssey (1968) REMUX 4K HDR Latino – CMHDD mega latino, 2001 A Space Odyssey (1968) REMUX 4K HDR Latino – CMHDD 4k latino, 2001 A Space Odyssey (1968) REMUX 4K HDR Latino – CMHDD pelicula completa, 2001 A Space Odyssey (1968) REMUX 4K HDR Latino – CMHDD descargar gratis, descargar 2001 A Space Odyssey (1968) REMUX 4K HDR Latino – CMHDD pelicula latino, 2001 A Space Odyssey (1968) REMUX 4K HDR Latino – CMHDD 1 link mega, 2001 A Space Odyssey (1968) REMUX 4K HDR Latino – CMHDD 1 link google drive, 2001 A Space Odyssey (1968) REMUX 4K HDR Latino – CMHDD hd 1080p latino.
Comentarios 0