×

¿Problemas para descargar con Mozilla, EDGE? Deshabilita la opción "Abrir vinculos en una pestaña nueva" tal como lo muestra ésta imagen.

2 Fast 2 Furious (2003) REMUX 4K HDR Latino – CMHDD

215 vistas

Información de 2 Fast 2 Furious (2003) REMUX 4K HDR Latino – CMHDD

Datos de la película

  • Calidad: 4K HDR
  • Audio: Español Latino DTS 5.1 BLURAY - Ingles DTS-HD Master 7.1 BLURAY
  • Subtitulos: Español Latino PGS
  • Resolución: 3840x2160p
  • Formato: MKV
  • Codec: H.264
  • Encoder: Dracarys
  • Mediainfo: Clic para Mostrar Datos Ver
  • Format                      : Matroska
    Format version              : Version 4
    File size                   : 51.5 GiB
    Duration                    : 1 h 47 min
    Overall bit rate mode       : Variable
    Overall bit rate            : 68.5 Mb/s
    Movie name                  : 2 Fast 2 Furious (2003) REMUX 4K HDR Latino - CMHDD
    Encoded date                : UTC 2023-03-21 05:50:27
    Writing application         : mkvmerge v47.0.0 ('Black Flag') 64-bit
    Writing library             : libebml v1.3.10 + libmatroska v1.5.2

    Video
    ID                          : 1
    ID in the original source m : 4113 (0x1011)
    Format                      : HEVC
    Format/Info                 : High Efficiency Video Coding
    Format profile              : Main 10@L5.1@High
    HDR format                  : SMPTE ST 2086, HDR10 compatible
    Codec ID                    : V_MPEGH/ISO/HEVC
    Duration                    : 1 h 47 min
    Bit rate                    : 62.9 Mb/s
    Width                       : 3 840 pixels
    Height                      : 2 160 pixels
    Display aspect ratio        : 16:9
    Frame rate mode             : Constant
    Frame rate                  : 23.976 (24000/1001) FPS
    Color space                 : YUV
    Chroma subsampling          : 4:2:0 (Type 2)
    Bit depth                   : 10 bits
    Bits/(Pixel*Frame)          : 0.316
    Stream size                 : 47.2 GiB (92%)
    Writing library             : ATEME Titan File 3.8.16 (4.8.16.0)      
    Language                    : English
    Default                     : No
    Forced                      : No
    Color range                 : Limited
    Color primaries             : BT.2020
    Transfer characteristics    : PQ
    Matrix coefficients         : BT.2020 non-constant
    Mastering display color pri : Display P3
    Mastering display luminance : min: 0.0050 cd/m2, max: 1000 cd/m2
    Maximum Content Light Level : 1000 cd/m2
    Maximum Frame-Average Light : 200 cd/m2
    Original source medium      : Blu-ray

    Audio #1
    ID                          : 2
    ID in the original source m : 4352 (0x1100)
    Format                      : DTS XLL X
    Format/Info                 : Digital Theater Systems
    Commercial name             : DTS-HD Master Audio
    Codec ID                    : A_DTS
    Duration                    : 1 h 47 min
    Bit rate mode               : Variable
    Bit rate                    : 4 214 kb/s
    Channel(s)                  : 8 channels
    Channel(s)_Original         : Object Based
    ChannelLayout_Original      : Object Based
    Sampling rate               : 48.0 kHz
    Frame rate                  : 93.750 FPS (512 SPF)
    Bit depth                   : 24 bits
    Stream size                 : 3.17 GiB (6%)
    Title                       : DTS-X 7.1
    Language                    : English
    Default                     : No
    Forced                      : No
    Original source medium      : Blu-ray

    Audio #2
    ID                          : 3
    Format                      : AC-3
    Format/Info                 : Audio Coding 3
    Commercial name             : Dolby Digital
    Codec ID                    : A_AC3
    Duration                    : 1 h 47 min
    Bit rate mode               : Constant
    Bit rate                    : 640 kb/s
    Channel(s)                  : 6 channels
    Channel layout              : L R C LFE Ls Rs
    Sampling rate               : 48.0 kHz
    Frame rate                  : 31.250 FPS (1536 SPF)
    Compression mode            : Lossy
    Stream size                 : 492 MiB (1%)
    Title                       : DD 5.1
    Language                    : English
    Service kind                : Complete Main
    Default                     : No
    Forced                      : No

    Audio #3
    ID                          : 4
    ID in the original source m : 4354 (0x1102)
    Format                      : DTS
    Format/Info                 : Digital Theater Systems
    Codec ID                    : A_DTS
    Duration                    : 1 h 47 min
    Bit rate mode               : Constant
    Bit rate                    : 768 kb/s
    Channel(s)                  : 6 channels
    Channel layout              : C L R Ls Rs LFE
    Sampling rate               : 48.0 kHz
    Frame rate                  : 93.750 FPS (512 SPF)
    Bit depth                   : 24 bits
    Compression mode            : Lossy
    Stream size                 : 591 MiB (1%)
    Title                       : DTS 5.1
    Language                    : Spanish
    Default                     : Yes
    Forced                      : No
    Original source medium      : Blu-ray

    Text #1
    ID                          : 5
    ID in the original source m : 4770 (0x12A2)
    Format                      : PGS
    Muxing mode                 : zlib
    Codec ID                    : S_HDMV/PGS
    Codec ID/Info               : Picture based subtitle format used on BDs/HD-DVDs
    Duration                    : 1 h 39 min
    Bit rate                    : 28.8 kb/s
    Frame rate                  : 0.364 FPS
    Count of elements           : 2172
    Stream size                 : 20.5 MiB (0%)
    Language                    : Spanish
    Default                     : No
    Forced                      : No
    Original source medium      : Blu-ray

    Text #2
    ID                          : 6
    ID in the original source m : 4778 (0x12AA)
    Format                      : PGS
    Muxing mode                 : zlib
    Codec ID                    : S_HDMV/PGS
    Codec ID/Info               : Picture based subtitle format used on BDs/HD-DVDs
    Duration                    : 1 h 36 min
    Bit rate                    : 195 b/s
    Frame rate                  : 0.003 FPS
    Count of elements           : 18
    Stream size                 : 139 KiB (0%)
    Title                       : FORCED
    Language                    : Spanish
    Default                     : Yes
    Forced                      : No
    Original source medium      : Blu-ray

    Menu
    00:00:00.000                : en:Chapter 01
    00:11:28.646                : en:Chapter 02
    00:14:19.817                : en:Chapter 03
    00:16:01.627                : en:Chapter 04
    00:18:56.343                : en:Chapter 05
    00:24:22.377                : en:Chapter 06
    00:28:15.819                : en:Chapter 07
    00:35:12.902                : en:Chapter 08
    00:40:07.321                : en:Chapter 09
    00:46:43.383                : en:Chapter 10
    00:58:53.905                : en:Chapter 11
    01:05:01.856                : en:Chapter 12
    01:10:24.303                : en:Chapter 13
    01:13:36.745                : en:Chapter 14
    01:22:14.638                : en:Chapter 15
    01:29:53.137                : en:Chapter 16
    01:35:16.627                : en:Chapter 17
    01:37:31.887                : en:Chapter 18
    01:40:31.900                : en:Chapter 19

  • Peso: 51.5 GiB

Sinopsis

Brian O’Connor, un policía caído en desgracia, fue un adicto a la velocidad y ahora está pagando un precio por ello. Tal y como lo ven sus antiguos jefes y los altos mandos del FBI, este agente de incógnito les echó a perder una de las investigaciones más importantes que habían emprendido.

Ficha técnica

Video trailer de la película

Enlaces de descarga

Rip de Bluray

Descargar 2 Fast 2 Furious (2003) REMUX 4K HDR Latino – CMHDD


Aportes de DPeliculasHDmega la pass es:dpeliculashdmega.org Aportes de CinemaniaHD la pass es:cinemaniahdd.com Aportes recientes:cinemaniahdd.net
Guardado en : Acción , Crimen , Suspenso

Películas relacionadas

descargar 2 Fast 2 Furious (2003) REMUX 4K HDR Latino – CMHDD 4K HDR 1080p gratis, 2 Fast 2 Furious (2003) REMUX 4K HDR Latino – CMHDD 4K HDR mega 1 link, 2 Fast 2 Furious (2003) REMUX 4K HDR Latino – CMHDD 4K HDR pelicula completa, descargar 2 Fast 2 Furious (2003) REMUX 4K HDR Latino – CMHDD 4K HDR gratis en mega.

2 Fast 2 Furious (2003) REMUX 4K HDR Latino – CMHDD pelicula full hd, 2 Fast 2 Furious (2003) REMUX 4K HDR Latino – CMHDD mega latino, 2 Fast 2 Furious (2003) REMUX 4K HDR Latino – CMHDD 4k latino, 2 Fast 2 Furious (2003) REMUX 4K HDR Latino – CMHDD pelicula completa, 2 Fast 2 Furious (2003) REMUX 4K HDR Latino – CMHDD descargar gratis, descargar 2 Fast 2 Furious (2003) REMUX 4K HDR Latino – CMHDD pelicula latino, 2 Fast 2 Furious (2003) REMUX 4K HDR Latino – CMHDD 1 link mega, 2 Fast 2 Furious (2003) REMUX 4K HDR Latino – CMHDD 1 link google drive, 2 Fast 2 Furious (2003) REMUX 4K HDR Latino – CMHDD hd 1080p latino.
Comentarios 0