×

¿Problemas para descargar con Mozilla, EDGE? Deshabilita la opción "Abrir vinculos en una pestaña nueva" tal como lo muestra ésta imagen.

1918 – La Batalla de Kruty (2019) WEB-DL 1080p Latino

395 vistas

Información de 1918 – La Batalla de Kruty (2019) WEB-DL 1080p Latino

Datos de la película

  • Calidad: WEBDL
  • Audio: Se especifica abajo de la Sinopsis
  • Subtitulos: Español Latino SRT- FORZADOS SRT
  • Resolución: 1920x804
  • Formato: MKV
  • Codec: H.264
  • Encoder: cinemaniahdd
  • Mediainfo: Clic para Mostrar Datos Ver
  • Winter of The Braves (2019) WEB-DL 1080p Latino.mkv
    Format                      : Matroska
    Format version              : Version 4
    File size                   : 3.90 GiB
    Duration                    : 1 h 50 min
    Overall bit rate            : 5 071 kb/s
    Movie name                  : Winter of The Braves (2019) - CinemaniaHDD.Net
    Encoded date                : UTC 2020-04-23 23:48:00
    Writing application         : mkvmerge v42.0.0 ('Overtime') 64-bit
    Writing library             : libebml v1.3.10 + libmatroska v1.5.2

    Video
    ID                          : 1
    Format                      : AVC
    Format/Info                 : Advanced Video Codec
    Format profile              : High@L4
    Format settings             : CABAC / 5 Ref Frames
    Format settings, CABAC      : Yes
    Format settings, ReFrames   : 5 frames
    Codec ID                    : V_MPEG4/ISO/AVC
    Duration                    : 1 h 50 min
    Bit rate                    : 4 557 kb/s
    Width                       : 1 920 pixels
    Height                      : 804 pixels
    Display aspect ratio        : 2.40:1
    Frame rate mode             : Constant
    Frame rate                  : 24.000 FPS
    Color space                 : YUV
    Chroma subsampling          : 4:2:0
    Bit depth                   : 8 bits
    Scan type                   : Progressive
    Bits/(Pixel*Frame)          : 0.123
    Stream size                 : 3.50 GiB (90%)
    Title                       : CinemaniaHDD
    Language                    : English
    Default                     : Yes
    Forced                      : No
    Color range                 : Limited
    Color primaries             : BT.709
    Transfer characteristics    : BT.709
    Matrix coefficients         : BT.709

    Audio #1
    ID                          : 2
    Format                      : AC-3
    Format/Info                 : Audio Coding 3
    Commercial name             : Dolby Digital
    Codec ID                    : A_AC3
    Duration                    : 1 h 50 min
    Bit rate mode               : Constant
    Bit rate                    : 256 kb/s
    Channel(s)                  : 2 channels
    Channel layout              : L R
    Sampling rate               : 48.0 kHz
    Frame rate                  : 31.250 FPS (1536 SPF)
    Bit depth                   : 16 bits
    Compression mode            : Lossy
    Stream size                 : 201 MiB (5%)
    Title                       : Español latino [CinemaniaHDD]
    Language                    : Spanish
    Service kind                : Complete Main
    Default                     : Yes
    Forced                      : No

    Audio #2
    ID                          : 3
    Format                      : AC-3
    Format/Info                 : Audio Coding 3
    Commercial name             : Dolby Digital
    Codec ID                    : A_AC3
    Duration                    : 1 h 50 min
    Bit rate mode               : Constant
    Bit rate                    : 256 kb/s
    Channel(s)                  : 2 channels
    Channel layout              : L R
    Sampling rate               : 48.0 kHz
    Frame rate                  : 31.250 FPS (1536 SPF)
    Bit depth                   : 16 bits
    Compression mode            : Lossy
    Stream size                 : 201 MiB (5%)
    Title                       : Ucraniano [CinemaniaHDD]
    Language                    : Ukrainian
    Service kind                : Complete Main
    Default                     : No
    Forced                      : No

    Text #1
    ID                          : 4
    Format                      : UTF-8
    Codec ID                    : S_TEXT/UTF8
    Codec ID/Info               : UTF-8 Plain Text
    Duration                    : 1 h 43 min
    Bit rate                    : 2 b/s
    Count of elements           : 54
    Stream size                 : 1.63 KiB (0%)
    Title                       : Forzados [CinemaniaHDD]
    Language                    : Spanish
    Default                     : Yes
    Forced                      : Yes

    Text #2
    ID                          : 5
    Format                      : UTF-8
    Codec ID                    : S_TEXT/UTF8
    Codec ID/Info               : UTF-8 Plain Text
    Duration                    : 1 h 44 min
    Bit rate                    : 35 b/s
    Count of elements           : 1075
    Stream size                 : 27.3 KiB (0%)
    Title                       : Español latino [CinemaniaHDD]
    Language                    : Spanish
    Default                     : No
    Forced                      : No

    Menu
    00:00:00.000                : en:1
    00:11:29.000                : en:2
    00:27:22.208                : en:3
    00:45:00.416                : en:4
    01:07:51.291                : en:5
    01:25:42.666                : en:6
    01:36:38.373                : en:7
    01:44:04.789                : en:8

     

  • Peso: 3.90 GiB

Sinopsis

Ucrania, 1918. Como un ejército bolchevique de unos 4.000 hombres comandados por el general Muravyov avanza hacia Kiev con el objetivo de capturar la ciudad, una pequeña unidad ucraniana de 400 soldados, de los cuales 300 son estudiantes, se resiste cerca del ferrocarril. estación de Kruty. El choque entre las fuerzas opuestas y desiguales se desata, con una furia terrible. Los jóvenes, como los soldados espartanos, se sacrifican en una lucha contra los agresores.

Español Latino AC3 2.0 WEB-DL – Ucraniano AC3 2.0 WEB-DL

Ficha técnica

Video trailer de la película

Enlaces de descarga

Rip de Bluray

Descargar 1918 – La Batalla de Kruty (2019) WEB-DL 1080p Latino




Aportes de DPeliculasHDmega la pass es:dpeliculashdmega.org Aportes de CinemaniaHD la pass es:cinemaniahdd.com
Guardado en : Bélica , Drama , Historia

Películas relacionadas

  • Blonde (2022) NF WEB-DL 1080p Latino

    Blonde (2022) NF WEB-DL 1080p Latino

    2022
    Blonde (2022) NF WEB-DL 1080p Latino

    2h 46m 2022

    Descargar Blonde (2022) NF WEB-DL 1080p Latino. Basada en el bestseller de la cinco veces finalista al...

    Director: Kristin Bree Calabrese

    Género: Drama

    Actores: Xavier Samuel

  • Infiniti (2022) Primera Temporada WEB-DL 1080p Latino

    Infiniti (2022) Primera Temporada WEB-DL 1080p Latino

    2022
    Infiniti (2022) Primera Temporada WEB-DL 1080p Latino

    0h 52m 2022

    La ISS, la Estación Espacial Internacional se ha quedado en silencio. La tripulación está en peligro....

    Director: Stéphane Pannetier

    Género: Drama

    Actores: Vlad Ivanov

  • Athena (2022) NF WEB-DL 1080p Latino

    Athena (2022) NF WEB-DL 1080p Latino

    2022
    Athena (2022) NF WEB-DL 1080p Latino

    1h 37m 2022

    Descargar Athena (2022) NF WEB-DL 1080p Latino. Horas después de la trágica muerte de su hermano menor...

    Director: Romain Gavras

    Género: Acción

    Actores: Tarek Haddaji

descargar 1918 – La Batalla de Kruty (2019) WEB-DL 1080p Latino WEBDL 1080p gratis, 1918 – La Batalla de Kruty (2019) WEB-DL 1080p Latino WEBDL mega 1 link, 1918 – La Batalla de Kruty (2019) WEB-DL 1080p Latino WEBDL pelicula completa, descargar 1918 – La Batalla de Kruty (2019) WEB-DL 1080p Latino WEBDL gratis en mega.

1918 – La Batalla de Kruty (2019) WEB-DL 1080p Latino pelicula full hd, 1918 – La Batalla de Kruty (2019) WEB-DL 1080p Latino mega latino, 1918 – La Batalla de Kruty (2019) WEB-DL 1080p Latino 4k latino, 1918 – La Batalla de Kruty (2019) WEB-DL 1080p Latino pelicula completa, 1918 – La Batalla de Kruty (2019) WEB-DL 1080p Latino descargar gratis, descargar 1918 – La Batalla de Kruty (2019) WEB-DL 1080p Latino pelicula latino, 1918 – La Batalla de Kruty (2019) WEB-DL 1080p Latino 1 link mega, 1918 – La Batalla de Kruty (2019) WEB-DL 1080p Latino 1 link google drive, 1918 – La Batalla de Kruty (2019) WEB-DL 1080p Latino hd 1080p latino.
Comentarios 0