×

¿Problemas para descargar con Mozilla, EDGE? Deshabilita la opción "Abrir vinculos en una pestaña nueva" tal como lo muestra ésta imagen.

1917 (2019) AMZN WEB-DL 1080p Latino

1.704 vistas

Información de 1917 (2019) AMZN WEB-DL 1080p Latino

Datos de la película

  • Calidad:
  • Audio: Se especifica abajo de la Sinopsis
  • Subtitulos: Español Latino SRT- FORZADOS SRT
  • Resolución: 1920x800
  • Formato: MKV
  • Codec: H.264
  • Encoder: cinemaniahdd
  • Mediainfo: Clic para Mostrar Datos Ver
  • 1917 (2019) AMZN WEB-DL 1080p Latino.mkv
    Format                      : Matroska
    Format version              : Version 4
    File size                   : 7.15 GiB
    Duration                    : 1 h 58 min
    Overall bit rate            : 8 606 kb/s
    Movie name                  : 1917 (2019) - CinemaniaHDD.Net
    Encoded date                : UTC 2020-03-11 21:39:43
    Writing application         : mkvmerge v42.0.0 ('Overtime') 64-bit
    Writing library             : libebml v1.3.10 + libmatroska v1.5.2

    Video
    ID                          : 1
    Format                      : AVC
    Format/Info                 : Advanced Video Codec
    Format profile              : High@L4
    Format settings             : CABAC / 4 Ref Frames
    Format settings, CABAC      : Yes
    Format settings, ReFrames   : 4 frames
    Codec ID                    : V_MPEG4/ISO/AVC
    Duration                    : 1 h 58 min
    Bit rate mode               : Constant
    Bit rate                    : 7 580 kb/s
    Nominal bit rate            : 10 000 kb/s
    Width                       : 1 920 pixels
    Height                      : 800 pixels
    Display aspect ratio        : 2.40:1
    Frame rate mode             : Constant
    Frame rate                  : 23.976 (24000/1001) FPS
    Color space                 : YUV
    Chroma subsampling          : 4:2:0
    Bit depth                   : 8 bits
    Scan type                   : Progressive
    Bits/(Pixel*Frame)          : 0.206
    Stream size                 : 6.30 GiB (88%)
    Title                       : CinemaniaHDD
    Default                     : Yes
    Forced                      : No
    Color range                 : Limited
    Color primaries             : BT.709
    Transfer characteristics    : BT.709
    Matrix coefficients         : BT.709

    Audio #1
    ID                          : 2
    Format                      : AC-3
    Format/Info                 : Audio Coding 3
    Commercial name             : Dolby Digital
    Codec ID                    : A_AC3
    Duration                    : 1 h 58 min
    Bit rate mode               : Constant
    Bit rate                    : 384 kb/s
    Channel(s)                  : 6 channels
    Channel layout              : L R C LFE Ls Rs
    Sampling rate               : 48.0 kHz
    Frame rate                  : 31.250 FPS (1536 SPF)
    Bit depth                   : 16 bits
    Compression mode            : Lossy
    Stream size                 : 327 MiB (4%)
    Title                       : Español latino [CinemaniaHDD]
    Language                    : Spanish
    Service kind                : Complete Main
    Default                     : Yes
    Forced                      : No

    Audio #2
    ID                          : 3
    Format                      : E-AC-3
    Format/Info                 : Enhanced AC-3
    Commercial name             : Dolby Digital Plus
    Codec ID                    : A_EAC3
    Duration                    : 1 h 58 min
    Bit rate mode               : Constant
    Bit rate                    : 640 kb/s
    Channel(s)                  : 6 channels
    Channel layout              : L R C LFE Ls Rs
    Sampling rate               : 48.0 kHz
    Frame rate                  : 31.250 FPS (1536 SPF)
    Compression mode            : Lossy
    Stream size                 : 545 MiB (7%)
    Title                       : Inglés [CinemaniaHDD]
    Language                    : English
    Service kind                : Complete Main
    Default                     : No
    Forced                      : No

    Text #1
    ID                          : 4
    Format                      : UTF-8
    Codec ID                    : S_TEXT/UTF8
    Codec ID/Info               : UTF-8 Plain Text
    Duration                    : 1 h 48 min
    Bit rate                    : 0 b/s
    Count of elements           : 4
    Stream size                 : 132 Bytes (0%)
    Title                       : Forzados [CinemaniaHDD]
    Language                    : Spanish
    Default                     : Yes
    Forced                      : Yes

    Text #2
    ID                          : 5
    Format                      : UTF-8
    Codec ID                    : S_TEXT/UTF8
    Codec ID/Info               : UTF-8 Plain Text
    Duration                    : 1 h 48 min
    Bit rate                    : 38 b/s
    Count of elements           : 861
    Stream size                 : 30.4 KiB (0%)
    Title                       : Español latino [CinemaniaHDD]
    Language                    : Spanish
    Default                     : No
    Forced                      : No

    Text #3
    ID                          : 6
    Format                      : UTF-8
    Codec ID                    : S_TEXT/UTF8
    Codec ID/Info               : UTF-8 Plain Text
    Duration                    : 1 h 58 min
    Bit rate                    : 40 b/s
    Count of elements           : 1473
    Stream size                 : 35.4 KiB (0%)
    Title                       : Inglés [CinemaniaHDD]
    Language                    : English
    Default                     : No
    Forced                      : No

    Menu
    00:00:00.000                : en:Studio Logo
    00:00:48.000                : en:Title Sequence
    00:01:01.000                : en:Scene 3
    00:11:21.000                : en:Scene 4
    00:16:29.000                : en:Scene 5
    00:25:45.000                : en:Scene 6
    00:30:51.000                : en:Scene 7
    00:44:37.000                : en:Scene 8
    00:54:56.000                : en:Scene 9
    01:06:34.000                : en:Scene 10
    01:19:57.000                : en:Scene 11
    01:23:00.000                : en:Scene 12

  • Peso: 7.15 GiB

Sinopsis

Nos encontramos en el año 1917. La Guerra Mundial amenazaba con cambiar, para siempre, el orden mundial. Ante la amenaza que se cernía, Estados Unidos decidió entrar en el conflicto con el objetivo de desequilibrar la balanza que caracterizaba a la contienda.

Español Latino AC3 5.1 DVD – Ingles AC3 5.1 WEB-DL

Ficha técnica

  • Titulo original: 1917
  • Fecha de lanzamiento: 25-12-2019 (United Kingdom, United States of America)
  • Director: Sam Mendes
  • Género: Acción, Bélica, Drama

Video trailer de la película

Enlaces de descarga

Rip de Bluray

Descargar 1917 (2019) AMZN WEB-DL 1080p Latino




Aportes de DPeliculasHDmega la pass es:dpeliculashdmega.org Aportes de CinemaniaHD la pass es:cinemaniahdd.com
Guardado en : Acción , Bélica , Drama

Películas relacionadas

descargar 1917 (2019) AMZN WEB-DL 1080p Latino 1080p gratis, 1917 (2019) AMZN WEB-DL 1080p Latino mega 1 link, 1917 (2019) AMZN WEB-DL 1080p Latino pelicula completa, descargar 1917 (2019) AMZN WEB-DL 1080p Latino gratis en mega.

1917 (2019) AMZN WEB-DL 1080p Latino pelicula full hd, 1917 (2019) AMZN WEB-DL 1080p Latino mega latino, 1917 (2019) AMZN WEB-DL 1080p Latino 4k latino, 1917 (2019) AMZN WEB-DL 1080p Latino pelicula completa, 1917 (2019) AMZN WEB-DL 1080p Latino descargar gratis, descargar 1917 (2019) AMZN WEB-DL 1080p Latino pelicula latino, 1917 (2019) AMZN WEB-DL 1080p Latino 1 link mega, 1917 (2019) AMZN WEB-DL 1080p Latino 1 link google drive, 1917 (2019) AMZN WEB-DL 1080p Latino hd 1080p latino.
Comentarios 0