×

¿Problemas para descargar con Mozilla, EDGE? Deshabilita la opción "Abrir vinculos en una pestaña nueva" tal como lo muestra ésta imagen.

1883 (2021) Primera Temporada AMZN WEB-DL 1080p Latino

1.143 vistas

Información de 1883 (2021) Primera Temporada AMZN WEB-DL 1080p Latino

Datos de la película

  • Calidad: 1080p
  • Audio: Español Latino AC3 2.0 WEB-DL - Ingles AC3 2.0 WEB-DL
  • Subtitulos: Español Latino SRT
  • Resolución: 1920x1080
  • Formato: MKV
  • Codec: H.264
  • Encoder: cinemaniahdd
  • Mediainfo: Clic para Mostrar Datos Ver
  • \1883 T01E01 AMZN WEB-DL 1080p Latino [CNMNHDD].mkv
    Format                      : Matroska
    Format version              : Version 4
    File size                   : 4.49 GiB
    Duration                    : 1 h 6 min
    Overall bit rate            : 9 642 kb/s
    Movie name                  : 1883 S01E01 - 1883 [1080p] [CNMNHDD]
    Encoded date                : UTC 2022-04-26 00:17:33
    Writing application         : mkvmerge v56.1.0 ('My Friend') 64-bit
    Writing library             : libebml v1.4.2 + libmatroska v1.6.4

    Video
    ID                          : 1
    Format                      : AVC
    Format/Info                 : Advanced Video Codec
    Format profile              : High@L4
    Format settings             : CABAC / 4 Ref Frames
    Format settings, CABAC      : Yes
    Format settings, Reference  : 4 frames
    Codec ID                    : V_MPEG4/ISO/AVC
    Duration                    : 1 h 6 min
    Bit rate mode               : Constant
    Bit rate                    : 9 300 kb/s
    Nominal bit rate            : 10 000 kb/s
    Width                       : 1 920 pixels
    Height                      : 1 080 pixels
    Display aspect ratio        : 16:9
    Frame rate mode             : Constant
    Frame rate                  : 23.976 (24000/1001) FPS
    Color space                 : YUV
    Chroma subsampling          : 4:2:0
    Bit depth                   : 8 bits
    Scan type                   : Progressive
    Bits/(Pixel*Frame)          : 0.187
    Stream size                 : 4.33 GiB (96%)
    Title                       : CinemaniaHDD
    Default                     : Yes
    Forced                      : No
    Color range                 : Limited
    Color primaries             : BT.709
    Transfer characteristics    : BT.709
    Matrix coefficients         : BT.709

    Audio #1
    ID                          : 2
    Format                      : AAC LC
    Format/Info                 : Advanced Audio Codec Low Complexity
    Codec ID                    : A_AAC-2
    Duration                    : 1 h 6 min
    Bit rate                    : 125 kb/s
    Channel(s)                  : 2 channels
    Channel layout              : L R
    Sampling rate               : 48.0 kHz
    Frame rate                  : 46.875 FPS (1024 SPF)
    Compression mode            : Lossy
    Stream size                 : 59.8 MiB (1%)
    Title                       : Español latino [CinemaniaHDD]
    Language                    : Spanish
    Default                     : Yes
    Forced                      : No

    Audio #2
    ID                          : 3
    Format                      : E-AC-3
    Format/Info                 : Enhanced AC-3
    Commercial name             : Dolby Digital Plus
    Codec ID                    : A_EAC3
    Duration                    : 1 h 6 min
    Bit rate mode               : Constant
    Bit rate                    : 224 kb/s
    Channel(s)                  : 2 channels
    Channel layout              : L R
    Sampling rate               : 48.0 kHz
    Frame rate                  : 31.250 FPS (1536 SPF)
    Compression mode            : Lossy
    Stream size                 : 107 MiB (2%)
    Title                       : Inglés [CinemaniaHDD]
    Language                    : English
    Service kind                : Complete Main
    Default                     : No
    Forced                      : No

    Text
    ID                          : 4
    Format                      : UTF-8
    Codec ID                    : S_TEXT/UTF8
    Codec ID/Info               : UTF-8 Plain Text
    Duration                    : 1 h 5 min
    Bit rate                    : 36 b/s
    Count of elements           : 669
    Stream size                 : 17.5 KiB (0%)
    Title                       : Español latino [CinemaniaHDD]
    Language                    : Spanish
    Default                     : No
    Forced                      : No

    Menu
    00:00:00.000                : Studio Logo
    00:00:19.000                : Scene 2
    00:03:53.000                : Title Sequence
    00:04:57.000                : Scene 4
    00:10:59.000                : Scene 5
    00:16:00.000                : Scene 6
    00:24:34.000                : Scene 7
    00:31:25.000                : Scene 8
    00:38:52.000                : Scene 9
    00:44:33.000                : Scene 10
    00:49:03.000                : Scene 11
    00:55:58.000                : Scene 12
    01:01:24.000                : Scene 13
    01:05:57.000                : End Credits

     

  • Peso: 4.49 GiB Aprox ---- 39 GiB in 10 Chapters.

Sinopsis

Siga a la familia Dutton mientras se embarcan en un viaje hacia el oeste a través de las Grandes Llanuras hacia el último bastión de la indómita América. Un recuento crudo de la expansión occidental y un estudio intenso de una familia que huye de la pobreza para buscar un futuro mejor en la tierra prometida de Estados Unidos: Montana.

Ficha técnica

Video trailer de la película

Enlaces de descarga

Rip de Bluray

Descargar 1883 (2021) Primera Temporada AMZN WEB-DL 1080p Latino




Aportes de DPeliculasHDmega la pass es:dpeliculashdmega.org Aportes de CinemaniaHD la pass es:cinemaniahdd.com
Guardado en : Drama , Series , Western

Películas relacionadas

descargar 1883 (2021) Primera Temporada AMZN WEB-DL 1080p Latino 1080p 1080p gratis, 1883 (2021) Primera Temporada AMZN WEB-DL 1080p Latino 1080p mega 1 link, 1883 (2021) Primera Temporada AMZN WEB-DL 1080p Latino 1080p serie completa, descargar 1883 (2021) Primera Temporada AMZN WEB-DL 1080p Latino 1080p gratis en mega.

1883 (2021) Primera Temporada AMZN WEB-DL 1080p Latino pelicula full hd, 1883 (2021) Primera Temporada AMZN WEB-DL 1080p Latino mega latino, 1883 (2021) Primera Temporada AMZN WEB-DL 1080p Latino 4k latino, 1883 (2021) Primera Temporada AMZN WEB-DL 1080p Latino pelicula completa, 1883 (2021) Primera Temporada AMZN WEB-DL 1080p Latino descargar gratis, descargar 1883 (2021) Primera Temporada AMZN WEB-DL 1080p Latino pelicula latino, 1883 (2021) Primera Temporada AMZN WEB-DL 1080p Latino 1 link mega, 1883 (2021) Primera Temporada AMZN WEB-DL 1080p Latino 1 link google drive, 1883 (2021) Primera Temporada AMZN WEB-DL 1080p Latino hd 1080p latino.
Comentarios 2
  • Kaos - 26 abril, 2022

    Hola, el audio Latino esta desincronizado. Muchas Garcias

    • CinemaniaHDD - 26 abril, 2022

      Solucionado.