Si Yo Tuviera 30 (2004) Full HD 1080p Latino

92 vistas
1 estrella2 estrellas3 estrellas4 estrellas5 estrellas (Ninguna valoración todavía)
Cargando...

Información de Si Yo Tuviera 30 (2004) Full HD 1080p Latino

Datos de la película

  • Calidad: Full 1080p
  • Audio: Español Latino AC3 5.1 BLURAY - Ingles AC3 5.1 BLURAY
  • Subtitulos: Español Latino PGS - Ingles PGS
  • Resolución: 1920x1080p
  • Formato: MKV
  • Codec: H.264
  • Encoder: CinefiloCool
  • Mediainfo: Clic para Mostrar Datos Ver
  • Como Si Tuviera 30 (2004) Full HD 1080p Latino-CMHDD.mkv
    Format                      : Matroska
    Format version              : Version 4
    File size                   : 5.47 GiB
    Duration                    : 1 h 37 min
    Overall bit rate            : 8 007 kb/s
    Movie name                  : 13 Going On 30 (2004) CinemaniaHDD.Net
    Encoded date                : UTC 2021-02-06 06:15:09
    Writing application         : mkvmerge v51.0.0 ('I Wish') 64-bit
    Writing library             : libebml v1.4.0 + libmatroska v1.6.2
    Attachments                 : CINEMANIAHD.png

    Video
    ID                          : 1
    Format                      : AVC
    Format/Info                 : Advanced Video Codec
    Format profile              : High@L4.1
    Format settings             : CABAC / 4 Ref Frames
    Format settings, CABAC      : Yes
    Format settings, Reference  : 4 frames
    Codec ID                    : V_MPEG4/ISO/AVC
    Duration                    : 1 h 37 min
    Bit rate                    : 6 704 kb/s
    Width                       : 1 920 pixels
    Height                      : 1 080 pixels
    Display aspect ratio        : 16:9
    Frame rate mode             : Constant
    Frame rate                  : 23.976 (24000/1001) FPS
    Color space                 : YUV
    Chroma subsampling          : 4:2:0
    Bit depth                   : 8 bits
    Scan type                   : Progressive
    Bits/(Pixel*Frame)          : 0.135
    Stream size                 : 4.58 GiB (84%)
    Title                       : Full HD1080p [CinemaniaHDD]
    Writing library             : x264 core 157 r2935 545de2f
    Encoding settings           : cabac=1 / ref=4 / deblock=1:0:0 / analyse=0x3:0x133 / me=tesa / subme=11 / psy=1 / psy_rd=1.00:0.00 / mixed_ref=1 / me_range=24 / chroma_me=1 / trellis=2 / 8x8dct=1 / cqm=0 / deadzone=21,11 / fast_pskip=0 / chroma_qp_offset=-2 / threads=24 / lookahead_threads=6 / sliced_threads=0 / nr=0 / decimate=1 / interlaced=0 / bluray_compat=0 / constrained_intra=0 / bframes=16 / b_pyramid=2 / b_adapt=2 / b_bias=0 / direct=3 / weightb=1 / open_gop=0 / weightp=2 / keyint=240 / keyint_min=24 / scenecut=40 / intra_refresh=0 / rc_lookahead=60 / rc=crf / mbtree=1 / crf=20.0 / qcomp=0.60 / qpmin=0 / qpmax=69 / qpstep=4 / vbv_maxrate=62500 / vbv_bufsize=78125 / crf_max=0.0 / nal_hrd=none / filler=0 / ip_ratio=1.40 / aq=1:1.00
    Default                     : Yes
    Forced                      : Yes
    Color range                 : Limited
    Color primaries             : BT.709
    Transfer characteristics    : BT.709
    Matrix coefficients         : BT.709

    Audio #1
    ID                          : 2
    Format                      : AC-3
    Format/Info                 : Audio Coding 3
    Commercial name             : Dolby Digital
    Codec ID                    : A_AC3
    Duration                    : 1 h 37 min
    Bit rate mode               : Constant
    Bit rate                    : 640 kb/s
    Channel(s)                  : 6 channels
    Channel layout              : L R C LFE Ls Rs
    Sampling rate               : 48.0 kHz
    Frame rate                  : 31.250 FPS (1536 SPF)
    Compression mode            : Lossy
    Stream size                 : 448 MiB (8%)
    Title                       : Español Latino [CinemaniaHDD]
    Language                    : Spanish
    Service kind                : Complete Main
    Default                     : Yes
    Forced                      : Yes

    Audio #2
    ID                          : 3
    Format                      : AC-3
    Format/Info                 : Audio Coding 3
    Commercial name             : Dolby Digital
    Codec ID                    : A_AC3
    Duration                    : 1 h 37 min
    Bit rate mode               : Constant
    Bit rate                    : 640 kb/s
    Channel(s)                  : 6 channels
    Channel layout              : L R C LFE Ls Rs
    Sampling rate               : 48.0 kHz
    Frame rate                  : 31.250 FPS (1536 SPF)
    Compression mode            : Lossy
    Stream size                 : 448 MiB (8%)
    Title                       : Ingles AC3 [CinemaniaHDD]
    Language                    : English
    Service kind                : Complete Main
    Default                     : No
    Forced                      : No

    Text #1
    ID                          : 4
    Format                      : PGS
    Muxing mode                 : zlib
    Codec ID                    : S_HDMV/PGS
    Codec ID/Info               : Picture based subtitle format used on BDs/HD-DVDs
    Duration                    : 1 h 32 min
    Bit rate                    : 30.4 kb/s
    Count of elements           : 2026
    Stream size                 : 20.0 MiB (0%)
    Title                       : Español-PGS [CinemaniaHDD]
    Language                    : Spanish
    Default                     : No
    Forced                      : No

    Text #2
    ID                          : 5
    Format                      : PGS
    Muxing mode                 : zlib
    Codec ID                    : S_HDMV/PGS
    Codec ID/Info               : Picture based subtitle format used on BDs/HD-DVDs
    Duration                    : 1 h 32 min
    Bit rate                    : 31.4 kb/s
    Count of elements           : 2006
    Stream size                 : 20.7 MiB (0%)
    Title                       : Ingles-PGS [CinemaniaHDD]
    Language                    : English
    Default                     : No
    Forced                      : No

    Text #3
    ID                          : 6
    Format                      : UTF-8
    Codec ID                    : S_TEXT/UTF8
    Codec ID/Info               : UTF-8 Plain Text
    Duration                    : 1 h 16 min
    Bit rate                    : 0 b/s
    Count of elements           : 10
    Stream size                 : 227 Bytes (0%)
    Title                       : Forzados-SRT [CinemaniaHDD]
    Language                    : Spanish
    Default                     : Yes
    Forced                      : Yes

    Text #4
    ID                          : 7
    Format                      : UTF-8
    Codec ID                    : S_TEXT/UTF8
    Codec ID/Info               : UTF-8 Plain Text
    Duration                    : 1 h 32 min
    Bit rate                    : 52 b/s
    Count of elements           : 1013
    Stream size                 : 35.3 KiB (0%)
    Title                       : Español-SRT [CinemaniaHDD]
    Language                    : Spanish
    Default                     : No
    Forced                      : No

    Menu
    00:00:00.000                : en:Chapter 1
    00:05:58.066                : en:Chapter 2
    00:12:31.042                : en:Chapter 3
    00:18:50.755                : en:Chapter 4
    00:25:36.076                : en:Chapter 5
    00:29:07.454                : en:Chapter 6
    00:33:55.659                : en:Chapter 7
    00:41:27.860                : en:Chapter 8
    00:46:42.425                : en:Chapter 9
    00:52:09.626                : en:Chapter 10
    00:56:25.340                : en:Chapter 11
    01:03:14.958                : en:Chapter 12
    01:10:36.107                : en:Chapter 13
    01:16:45.684                : en:Chapter 14
    01:24:14.132                : en:Chapter 15
    01:31:13.677                : en:Chapter 16

  • Peso: 5.47 GiB

Sinopsis

Descargar Si Yo Tuviera 30 (2004) Full HD 1080p Latino. Lo único que desea Jenna Rink en su décimotercer cumpleaños es ser guapa y popular. Tras una experiencia humillante delante del chico más guay de la escuela, Jenna desea fervientemente tener una nueva vida. Milagrosamente su deseo se hace realidad: de la noche a la mañana pasan 17 años y ella despierta convertida en una mujer de treinta.

Ficha técnica

Video trailer de la película

Enlaces de descarga

Rip de Bluray

Descargar Si Yo Tuviera 30 (2004) Full HD 1080p Latino




Aportes de DPeliculasHDmega la pass es:dpeliculashdmega.org Aportes de CinemaniaHD la pass es:cinemaniahdd.com

Películas relacionadas

  • Horizon Line (2020) PLACEBO Full HD 1080p Latino

    Horizon Line (2020) PLACEBO Full HD 1080p Latino

    2020
    Horizon Line (2020) PLACEBO Full HD 1080p Latino

    0.0 1h 31m 2020

    Descargar Horizon Line (2020) PLACEBO Full HD 1080p Latino. Una pareja que viaja en un avión pequeño...

    Director: Mikael Marcimain

    Género: FULL 1080p Plateadas

    Actores: Pearl Mackie

  • Madame Curie (2019) HD 1080p Latino

    Madame Curie (2019) HD 1080p Latino

    2019
    Madame Curie (2019) HD 1080p Latino

    0.0 1h 55m 2019

    Descargar Madame Curie (2019) HD 1080p Latino. Cuenta la historia de la ganadora del Premio Nobel Marie...

    Director: Phoebe Billington

    Género: Drama

    Actores: Tim Woodward

  • Madame Curie (2019) PLACEBO Full HD 1080p Latino

    Madame Curie (2019) PLACEBO Full HD 1080p Latino

    2019
    Madame Curie (2019) PLACEBO Full HD 1080p Latino

    0.0 1h 55m 2019

    Descargar Madame Curie (2019) PLACEBO Full HD 1080p Latino. Cuenta la historia de la ganadora del Premio...

    Director: Phoebe Billington

    Género: Drama

    Actores: Tim Woodward

  • Madame Curie (2019) REMUX 1080p Latino

    Madame Curie (2019) REMUX 1080p Latino

    2019
    Madame Curie (2019) REMUX 1080p Latino

    0.0 1h 55m 2019

    Descargar Madame Curie (2019) REMUX 1080p Latino. Cuenta la historia de la ganadora del Premio Nobel...

    Director: Phoebe Billington

    Género: Drama

    Actores: Tim Woodward

  • Proyecto Exorcismo (2019) PLACEBO Full HD 1080p Latino

    Proyecto Exorcismo (2019) PLACEBO Full HD 1080p Latino

    2019
    Proyecto Exorcismo (2019) PLACEBO Full HD 1080p Latino

    0.0 1h 34m 2019

    Descargar Proyecto Exorcismo (2019) PLACEBO Full HD 1080p Latino. Millennials y emprendedores, Drew y...

    Director: Damien LeVeck

    Género: FULL 1080p Plateadas

    Actores: Tiberiu Harsan

Si Yo Tuviera 30 (2004) Full HD 1080p Latino pelicula full hd, Si Yo Tuviera 30 (2004) Full HD 1080p Latino mega latino, Si Yo Tuviera 30 (2004) Full HD 1080p Latino 4k latino, Si Yo Tuviera 30 (2004) Full HD 1080p Latino pelicula completa, Si Yo Tuviera 30 (2004) Full HD 1080p Latino descargar gratis, descargar Si Yo Tuviera 30 (2004) Full HD 1080p Latino pelicula latino, Si Yo Tuviera 30 (2004) Full HD 1080p Latino 1 link mega, Si Yo Tuviera 30 (2004) Full HD 1080p Latino 1 link google drive, Si Yo Tuviera 30 (2004) Full HD 1080p Latino hd 1080p latino.
Comentarios 0