12 Horas Para Sobrevivir: El Inicio (2018) 1080p Latino

1.451 vistas
1 estrella2 estrellas3 estrellas4 estrellas5 estrellas (4 votos, promedio: 3,00 de 5)
Cargando…

Información de 12 Horas Para Sobrevivir: El Inicio (2018) 1080p Latino

Datos de la película

  • Calidad: 1080p
  • Audio: Español Latino AC3 5.1 DVD - Ingles AC3 5.1 BLURAY
  • Subtitulos: Español Latino SRT- FORZADOS SRT
  • Resolución: 1920x808p
  • Formato: MKV
  • Codec: H.264
  • Encoder: Dracarys
  • Mediainfo: Clic para Mostrar Datos Ver
  • Format                                   : Matroska
    Format version                           : Version 4 / Version 2
    File size                                : 3.05 GiB
    Duration                                 : 1 h 37 min
    Overall bit rate                         : 4 476 kb/s
    Movie name                               : CinemaniaHDD.net
    Encoded date                             : UTC 2018-09-22 22:37:05 / UTC 2018-09-22T18:45:36Z
    Writing application                      : mkvmerge v15.0.0 ('Duel with the Devil') 64-bit
    Writing library                          : libebml v1.3.5 + libmatroska v1.4.5 / Lavf57.7.2

    Video
    ID                                       : 1
    Format                                   : AVC
    Format/Info                              : Advanced Video Codec
    Format profile                           : High@L4.1
    Format settings                          : CABAC / 5 Ref Frames
    Format settings, CABAC                   : Yes
    Format settings, RefFrames               : 5 frames
    Codec ID                                 : V_MPEG4/ISO/AVC
    Duration                                 : 1 h 37 min
    Bit rate                                 : 3 500 kb/s
    Width                                    : 1 920 pixels
    Height                                   : 808 pixels
    Display aspect ratio                     : 2.40:1
    Frame rate mode                          : Constant
    Frame rate                               : 23.976 (24000/1001) FPS
    Color space                              : YUV
    Chroma subsampling                       : 4:2:0
    Bit depth                                : 8 bits
    Scan type                                : Progressive
    Bits/(Pixel*Frame)                       : 0.094
    Stream size                              : 2.29 GiB (75%)
    Writing library                          : x264 core 148 r2708 86b7198
    Encoding settings                        : cabac=1 / ref=5 / deblock=1:0:0 / analyse=0x3:0x113 / me=umh / subme=8 / psy=1 / psy_rd=1.00:0.00 / mixed_ref=1 / me_range=16 / chroma_me=1 / trellis=1 / 8x8dct=1 / cqm=0 / deadzone=21,11 / fast_pskip=1 / chroma_qp_offset=-2 / threads=25 / lookahead_threads=4 / sliced_threads=0 / nr=0 / decimate=1 / interlaced=0 / bluray_compat=0 / constrained_intra=0 / bframes=3 / b_pyramid=2 / b_adapt=2 / b_bias=0 / direct=3 / weightb=1 / open_gop=0 / weightp=2 / keyint=240 / keyint_min=24 / scenecut=40 / intra_refresh=0 / rc_lookahead=50 / rc=abr / mbtree=1 / bitrate=3500 / ratetol=1.0 / qcomp=0.60 / qpmin=0 / qpmax=69 / qpstep=4 / vbv_maxrate=62500 / vbv_bufsize=78125 / nal_hrd=none / filler=0 / ip_ratio=1.40 / aq=1:1.00
    Language                                 : English
    Default                                  : Yes
    Forced                                   : No
    Color range                              : Limited
    Color primaries                          : BT.709
    Transfer characteristics                 : BT.709
    Matrix coefficients                      : BT.709
    Statistics Tags Issue                    : mkvmerge v15.0.0 ('Duel with the Devil') 64-bit 2018-09-22 22:37:05 / mkvmerge v15.0.0 ('Duel with the Devil') 64-bit 2018-09-22 22:37:05 / UTC 2018-09-22T18:45:36Z
    FromStats_BitRate                        : 3449325
    FromStats_Duration                       : 01:37:25.423000000
    FromStats_FrameCount                     : 140150
    FromStats_StreamSize                     : 2520346006

    Audio #1
    ID                                       : 2
    Format                                   : AC-3
    Format/Info                              : Audio Coding 3
    Format settings, Endianness              : Big
    Codec ID                                 : A_AC3
    Duration                                 : 1 h 37 min
    Bit rate mode                            : Constant
    Bit rate                                 : 384 kb/s
    Channel(s)                               : 6 channels
    Channel positions                        : Front: L C R, Side: L R, LFE
    Sampling rate                            : 48.0 kHz
    Frame rate                               : 31.250 FPS (1536 SPF)
    Bit depth                                : 16 bits
    Compression mode                         : Lossy
    Delay relative to video                  : -5 ms
    Stream size                              : 268 MiB (9%)
    Language                                 : Spanish
    Service kind                             : Complete Main
    Default                                  : Yes
    Forced                                   : No
    Statistics Tags Issue                    : mkvmerge v15.0.0 ('Duel with the Devil') 64-bit 2018-09-22 22:37:05 / mkvmerge v15.0.0 ('Duel with the Devil') 64-bit 2018-09-22 22:37:05 / UTC 2018-09-22T18:45:36Z
    FromStats_BitRate                        : 384000
    FromStats_Duration                       : 01:37:25.408000000
    FromStats_FrameCount                     : 182669
    FromStats_StreamSize                     : 280579584

    Audio #2
    ID                                       : 3
    Format                                   : AC-3
    Format/Info                              : Audio Coding 3
    Format settings, Endianness              : Big
    Codec ID                                 : A_AC3
    Duration                                 : 1 h 37 min
    Bit rate mode                            : Constant
    Bit rate                                 : 640 kb/s
    Channel(s)                               : 6 channels
    Channel positions                        : Front: L C R, Side: L R, LFE
    Sampling rate                            : 48.0 kHz
    Frame rate                               : 31.250 FPS (1536 SPF)
    Bit depth                                : 16 bits
    Compression mode                         : Lossy
    Delay relative to video                  : -5 ms
    Stream size                              : 446 MiB (14%)
    Language                                 : English
    Service kind                             : Complete Main
    Default                                  : No
    Forced                                   : No
    Statistics Tags Issue                    : mkvmerge v15.0.0 ('Duel with the Devil') 64-bit 2018-09-22 22:37:05 / mkvmerge v15.0.0 ('Duel with the Devil') 64-bit 2018-09-22 22:37:05 / UTC 2018-09-22T18:45:36Z
    FromStats_BitRate                        : 640000
    FromStats_Duration                       : 01:37:25.408000000
    FromStats_FrameCount                     : 182669
    FromStats_StreamSize                     : 467632640

    Text #1
    ID                                       : 4
    Format                                   : UTF-8
    Codec ID                                 : S_TEXT/UTF8
    Codec ID/Info                            : UTF-8 Plain Text
    Title                                    : Forzados
    Language                                 : Spanish
    Default                                  : Yes
    Forced                                   : Yes
    Statistics Tags Issue                    : mkvmerge v15.0.0 ('Duel with the Devil') 64-bit 2018-09-22 22:37:05 / mkvmerge v15.0.0 ('Duel with the Devil') 64-bit 2018-09-22 22:37:05 / UTC 2018-09-22T18:45:36Z
    FromStats_BitRate                        : 0
    FromStats_Duration                       : 01:18:38.405000000
    FromStats_FrameCount                     : 16
    FromStats_StreamSize                     : 350

    Text #2
    ID                                       : 5
    Format                                   : UTF-8
    Codec ID                                 : S_TEXT/UTF8
    Codec ID/Info                            : UTF-8 Plain Text
    Language                                 : Spanish
    Default                                  : No
    Forced                                   : No
    Statistics Tags Issue                    : mkvmerge v15.0.0 ('Duel with the Devil') 64-bit 2018-09-22 22:37:05 / mkvmerge v15.0.0 ('Duel with the Devil') 64-bit 2018-09-22 22:37:05 / UTC 2018-09-22T18:45:36Z
    FromStats_BitRate                        : 57
    FromStats_Duration                       : 01:30:04.117000000
    FromStats_FrameCount                     : 1162
    FromStats_StreamSize                     : 38783

    Menu
    00:00:00.000                             : :00:00:00.000
    00:06:25.635                             : :00:06:25.635
    00:11:59.802                             : :00:11:59.802
    00:16:18.769                             : :00:16:18.769
    00:21:18.110                             : :00:21:18.110
    00:25:56.388                             : :00:25:56.388
    00:30:54.144                             : :00:30:54.144
    00:35:31.212                             : :00:35:31.212
    00:38:41.110                             : :00:38:41.110
    00:43:02.455                             : :00:43:02.455
    00:48:34.412                             : :00:48:34.411
    00:53:35.087                             : :00:53:35.087
    00:55:59.606                             : :00:55:59.565
    00:59:13.050                             : :00:59:13.049
    01:05:25.713                             : :01:05:25.713
    01:09:31.876                             : :01:09:31.793
    01:13:23.733                             : :01:13:23.733
    01:19:47.533                             : :01:19:47.533
    01:24:50.043                             : :01:24:50.043
    01:29:54.931                             : :01:29:54.931

  • Peso: 3.05 GiB

Sinopsis

Para mantener durante el resto del año la tasa de criminalidad por debajo del 1% los Nuevos Padres Fundadores de América ponen a prueba una teoría sociológica que da rienda suelta a todo tipo de agresiones durante una noche en una comunidad aislada. Pero cuando la violencia de los opresores se encuentra con la ira de los marginados, el vandalismo explota más allá de esas fronteras “experimentales” para extenderse por todo el país. Detrás de cada tradición hay una revolución. Descubre cómo toda una nación entera abrazó una brutal celebración anual: 12 horas de impunidad criminal. Bienvenidos a un movimiento que comenzó como un simple experimento: LA PRIMERA PURGA: LA NOCHE DE LAS BESTIAS.

Ficha técnica

Video trailer de la película

Enlaces de descarga

Rip de Bluray

Descargar 12 Horas Para Sobrevivir: El Inicio (2018) 1080p Latino




Aportes de DPeliculasHDmega la pass es:dpeliculashdmega.org Aportes de CinemaniaHD la pass es:cinemaniahdd.com

Películas relacionadas

  • El Justiciero 2 (2018) 1080p Latino

    2018
    El Justiciero 2 (2018) 1080p Latino

    1.0 2h 0m 2018

    Descargar El Justiciero 2 (2018) 1080p Latino, Mega, Google Drive. Robert McCall (Denzel Washington)...

    Director: Donald Sparks

    Género: Acción

    Actores: Wesley Pereira

  • Kin (2018) Full 1080p Latino

    2018
    Kin (2018) Full 1080p Latino

    5.0 1h 42m 2018

    Perseguidos por un criminal vengativo (James Franco) y una banda de soldados sobrenaturales,​ un exconvicto...

    Director: Josh Baker

    Género: Acción

    Actores: Zoë Kravitz

  • Los increíbles 2 (2018) Full 1080p Latino

    2018
    Los increíbles 2 (2018) Full 1080p Latino

    5.0 1h 58m 2018

    Helen tiene que liderar una campaña para que los superhéroes regresen, mientras Bob vive su vida "normal"...

    Director: Seong-Young Kim

    Género: Acción

    Actores: Usher

  • Searching (2018) WEBDL 1080p Subtitulado

    2018
    Searching (2018) WEBDL 1080p Subtitulado

    0.0 1h 41m 2018

    Después de que la hija de 16 años de David Kim desaparece, se abre una investigación policial. Pero...

    Director: Aneesh Chaganty

    Género: Drama

    Actores: Thomas Barbusca

Comentarios 0