×

¿Problemas para descargar con Mozilla, EDGE? Deshabilita la opción "Abrir vinculos en una pestaña nueva" tal como lo muestra ésta imagen.

12 horas para el fin del mundo (2022) WEB-DL 1080p Latino – CMHDD

118 vistas

Información de 12 horas para el fin del mundo (2022) WEB-DL 1080p Latino – CMHDD

Datos de la película

  • Calidad: 1080p
  • Audio: Se especifica abajo de la Sinopsis
  • Subtitulos: Español Latino SRT- FORZADOS SRT
  • Resolución: 19201080p
  • Formato: MKV
  • Codec: H.264
  • Encoder: Dracarys
  • Mediainfo: Clic para Mostrar Datos Ver
  • Format                      : Matroska
    Format version              : Version 4
    File size                   : 5.48 GiB
    Duration                    : 1 h 50 min
    Overall bit rate            : 7 112 kb/s
    Movie name                  : 12 horas para el fin del mundo (2022) WEB-DL 1080p Latino - CMHDD
    Encoded date                : UTC 2023-12-14 15:17:20
    Writing application         : mkvmerge v47.0.0 ('Black Flag') 64-bit
    Writing library             : libebml v1.3.10 + libmatroska v1.5.2

    Video
    ID                          : 1
    Format                      : AVC
    Format/Info                 : Advanced Video Codec
    Format profile              : Baseline@L4
    Format settings             : 2 Ref Frames
    Format settings, CABAC      : No
    Format settings, Reference  : 2 frames
    Format settings, GOP        : M=1, N=25
    Codec ID                    : V_MPEG4/ISO/AVC
    Duration                    : 1 h 50 min
    Bit rate mode               : Constant
    Bit rate                    : 6 144 kb/s
    Width                       : 1 920 pixels
    Height                      : 1 080 pixels
    Display aspect ratio        : 16:9
    Frame rate mode             : Constant
    Frame rate                  : 25.000 FPS
    Color space                 : YUV
    Chroma subsampling          : 4:2:0
    Bit depth                   : 8 bits
    Scan type                   : Progressive
    Bits/(Pixel*Frame)          : 0.119
    Stream size                 : 4.69 GiB (86%)
    Default                     : Yes
    Forced                      : No

    Audio #1
    ID                          : 2
    Format                      : AC-3
    Format/Info                 : Audio Coding 3
    Commercial name             : Dolby Digital
    Codec ID                    : A_AC3
    Duration                    : 1 h 50 min
    Bit rate mode               : Constant
    Bit rate                    : 384 kb/s
    Channel(s)                  : 6 channels
    Channel layout              : L R C LFE Ls Rs
    Sampling rate               : 48.0 kHz
    Frame rate                  : 31.250 FPS (1536 SPF)
    Compression mode            : Lossy
    Stream size                 : 303 MiB (5%)
    Language                    : Spanish
    Service kind                : Complete Main
    Default                     : Yes
    Forced                      : Yes

    Audio #2
    ID                          : 3
    Format                      : AC-3
    Format/Info                 : Audio Coding 3
    Commercial name             : Dolby Digital
    Codec ID                    : A_AC3
    Duration                    : 1 h 50 min
    Bit rate mode               : Constant
    Bit rate                    : 640 kb/s
    Channel(s)                  : 6 channels
    Channel layout              : L R C LFE Ls Rs
    Sampling rate               : 48.0 kHz
    Frame rate                  : 31.250 FPS (1536 SPF)
    Compression mode            : Lossy
    Stream size                 : 505 MiB (9%)
    Language                    : Russian
    Service kind                : Complete Main
    Default                     : No
    Forced                      : No

    Text #1
    ID                          : 4
    Format                      : UTF-8
    Codec ID                    : S_TEXT/UTF8
    Codec ID/Info               : UTF-8 Plain Text
    Duration                    : 1 h 15 min
    Bit rate                    : 0 b/s
    Frame rate                  : 0.002 FPS
    Count of elements           : 9
    Stream size                 : 267 Bytes (0%)
    Title                       : Forzados
    Language                    : Spanish
    Default                     : Yes
    Forced                      : Yes

    Text #2
    ID                          : 5
    Format                      : UTF-8
    Codec ID                    : S_TEXT/UTF8
    Codec ID/Info               : UTF-8 Plain Text
    Duration                    : 1 h 43 min
    Bit rate                    : 76 b/s
    Frame rate                  : 0.230 FPS
    Count of elements           : 1424
    Stream size                 : 57.6 KiB (0%)
    Language                    : Spanish
    Default                     : No
    Forced                      : No

     

  • Peso: 5.48 GiB

Sinopsis

Futuro cercano. Lera Arabova es una niña de 15 años que vive con su familia en Vladivostok. El padre de Lera ha estado trabajando en la estación espacial en órbita «Mira» durante muchos años y durante mucho tiempo perdió el contacto con su hija, convirtiéndose solo en una voz en el teléfono. Después de que una lluvia de meteoritos golpee la ciudad, Lera solo tiene una oportunidad de salvar a sus seres queridos y a la ciudad de un nuevo desastre. Su padre la ayuda en esto: a través de los sistemas de vigilancia satelital y el teléfono, aprovecha cada oportunidad para enviar un mensaje a su hija, observando desde arriba desde la estación cada paso.

 

Latino: AC3 5.1  –  Ruso. AC3 5.1

Ficha técnica

Video trailer de la película

Enlaces de descarga

Rip de Bluray

Descargar 12 horas para el fin del mundo (2022) WEB-DL 1080p Latino – CMHDD




Aportes de DPeliculasHDmega la pass es:dpeliculashdmega.org Aportes de CinemaniaHD la pass es:cinemaniahdd.com Aportes recientes:cinemaniahdd.net
Guardado en : Aventura , Ciencia ficción , Drama , Familia

Películas relacionadas

descargar 12 horas para el fin del mundo (2022) WEB-DL 1080p Latino – CMHDD 1080p 1080p gratis, 12 horas para el fin del mundo (2022) WEB-DL 1080p Latino – CMHDD 1080p mega 1 link, 12 horas para el fin del mundo (2022) WEB-DL 1080p Latino – CMHDD 1080p pelicula completa, descargar 12 horas para el fin del mundo (2022) WEB-DL 1080p Latino – CMHDD 1080p gratis en mega.

12 horas para el fin del mundo (2022) WEB-DL 1080p Latino – CMHDD pelicula full hd, 12 horas para el fin del mundo (2022) WEB-DL 1080p Latino – CMHDD mega latino, 12 horas para el fin del mundo (2022) WEB-DL 1080p Latino – CMHDD 4k latino, 12 horas para el fin del mundo (2022) WEB-DL 1080p Latino – CMHDD pelicula completa, 12 horas para el fin del mundo (2022) WEB-DL 1080p Latino – CMHDD descargar gratis, descargar 12 horas para el fin del mundo (2022) WEB-DL 1080p Latino – CMHDD pelicula latino, 12 horas para el fin del mundo (2022) WEB-DL 1080p Latino – CMHDD 1 link mega, 12 horas para el fin del mundo (2022) WEB-DL 1080p Latino – CMHDD 1 link google drive, 12 horas para el fin del mundo (2022) WEB-DL 1080p Latino – CMHDD hd 1080p latino.
Comentarios 0