×

¿Problemas para descargar con Mozilla, EDGE? Deshabilita la opción "Abrir vinculos en una pestaña nueva" tal como lo muestra ésta imagen.

12 Horas Para el Fin del Mundo (2022) REMUX 1080p Latino – CMHDD

29 vistas

Información de 12 Horas Para el Fin del Mundo (2022) REMUX 1080p Latino – CMHDD

Datos de la película

  • Calidad: Full 1080p
  • Audio: Se especifica abajo de la Sinopsis
  • Subtitulos: Español Latino SRT
  • Resolución: 19201080p
  • Formato: MKV
  • Codec: H.264
  • Encoder: Dracarys
  • Mediainfo: Clic para Mostrar Datos Ver
  • Format                      : Matroska
    Format version              : Version 4
    File size                   : 29.3 GiB
    Duration                    : 1 h 54 min
    Overall bit rate mode       : Variable
    Overall bit rate            : 36.5 Mb/s
    Movie name                  : 12 Horas Para el Fin del Mundo (2022) REMUX 1080p Latino - CMHDD
    Encoded date                : UTC 2024-06-08 00:23:56
    Writing application         : mkvmerge v47.0.0 ('Black Flag') 64-bit
    Writing library             : libebml v1.3.10 + libmatroska v1.5.2

    Video
    ID                          : 1
    Format                      : AVC
    Format/Info                 : Advanced Video Codec
    Format profile              : High@L4.1
    Format settings             : CABAC / 4 Ref Frames
    Format settings, CABAC      : Yes
    Format settings, Reference  : 4 frames
    Codec ID                    : V_MPEG4/ISO/AVC
    Duration                    : 1 h 54 min
    Bit rate mode               : Variable
    Bit rate                    : 32.0 Mb/s
    Width                       : 1 920 pixels
    Height                      : 1 080 pixels
    Display aspect ratio        : 16:9
    Frame rate mode             : Constant
    Frame rate                  : 24.000 FPS
    Color space                 : YUV
    Chroma subsampling          : 4:2:0
    Bit depth                   : 8 bits
    Scan type                   : Progressive
    Bits/(Pixel*Frame)          : 0.643
    Stream size                 : 25.2 GiB (86%)
    Writing library             : x264 core 164 r3107 a8b68eb
    Encoding settings           : cabac=1 / ref=4 / deblock=1:-1:-1 / analyse=0x3:0x113 / me=umh / subme=9 / psy=1 / psy_rd=1.00:0.15 / mixed_ref=1 / me_range=16 / chroma_me=1 / trellis=2 / 8x8dct=1 / cqm=1 / deadzone=21,11 / fast_pskip=1 / chroma_qp_offset=-3 / threads=24 / lookahead_threads=2 / sliced_threads=0 / slices=4 / nr=0 / decimate=1 / interlaced=0 / bluray_compat=1 / constrained_intra=0 / bframes=2 / b_pyramid=0 / b_adapt=2 / b_bias=0 / direct=3 / weightb=1 / open_gop=1 / weightp=1 / keyint=24 / keyint_min=1 / scenecut=40 / intra_refresh=0 / rc_lookahead=24 / rc=2pass / mbtree=1 / bitrate=32000 / ratetol=1.0 / qcomp=0.60 / qpmin=4 / qpmax=69 / qpstep=4 / cplxblur=20.0 / qblur=0.5 / vbv_maxrate=32000 / vbv_bufsize=30000 / nal_hrd=vbr / filler=0 / ip_ratio=1.40 / aq=1:1.00
    Default                     : Yes
    Forced                      : No
    Color range                 : Limited
    Color primaries             : BT.709
    Transfer characteristics    : BT.709
    Matrix coefficients         : BT.709

    Audio #1
    ID                          : 2
    Format                      : AC-3
    Format/Info                 : Audio Coding 3
    Commercial name             : Dolby Digital
    Codec ID                    : A_AC3
    Duration                    : 1 h 54 min
    Bit rate mode               : Constant
    Bit rate                    : 384 kb/s
    Channel(s)                  : 6 channels
    Channel layout              : L R C LFE Ls Rs
    Sampling rate               : 48.0 kHz
    Frame rate                  : 31.250 FPS (1536 SPF)
    Compression mode            : Lossy
    Delay relative to video     : 24 ms
    Stream size                 : 315 MiB (1%)
    Language                    : Spanish
    Service kind                : Complete Main
    Default                     : Yes
    Forced                      : Yes

    Audio #2
    ID                          : 3
    Format                      : AC-3
    Format/Info                 : Audio Coding 3
    Commercial name             : Dolby Digital
    Codec ID                    : A_AC3
    Duration                    : 1 h 54 min
    Bit rate mode               : Constant
    Bit rate                    : 640 kb/s
    Channel(s)                  : 6 channels
    Channel layout              : L R C LFE Ls Rs
    Sampling rate               : 48.0 kHz
    Frame rate                  : 31.250 FPS (1536 SPF)
    Compression mode            : Lossy
    Stream size                 : 526 MiB (2%)
    Language                    : Russian
    Service kind                : Complete Main
    Default                     : No
    Forced                      : No

    Audio #3
    ID                          : 4
    Format                      : DTS XLL
    Format/Info                 : Digital Theater Systems
    Commercial name             : DTS-HD Master Audio
    Codec ID                    : A_DTS
    Duration                    : 1 h 54 min
    Bit rate mode               : Variable
    Bit rate                    : 4 073 kb/s
    Channel(s)                  : 6 channels
    Channel layout              : C L R Ls Rs LFE
    Sampling rate               : 48.0 kHz
    Frame rate                  : 93.750 FPS (512 SPF)
    Bit depth                   : 24 bits
    Compression mode            : Lossless
    Stream size                 : 3.27 GiB (11%)
    Language                    : Russian
    Default                     : No
    Forced                      : No

    Text #1
    ID                          : 5
    Format                      : UTF-8
    Codec ID                    : S_TEXT/UTF8
    Codec ID/Info               : UTF-8 Plain Text
    Duration                    : 1 h 18 min
    Bit rate                    : 0 b/s
    Count of elements           : 9
    Stream size                 : 267 Bytes (0%)
    Language                    : Spanish
    Default                     : Yes
    Forced                      : Yes

    Text #2
    ID                          : 6
    Format                      : UTF-8
    Codec ID                    : S_TEXT/UTF8
    Codec ID/Info               : UTF-8 Plain Text
    Duration                    : 1 h 47 min
    Bit rate                    : 73 b/s
    Count of elements           : 1424
    Stream size                 : 57.6 KiB (0%)
    Language                    : Spanish
    Default                     : No
    Forced                      : No

    Menu
    00:00:00.000                : en:Chapter 01
    00:06:13.833                : en:Chapter 02
    00:11:51.750                : en:Chapter 03
    00:18:28.291                : en:Chapter 04
    00:25:06.416                : en:Chapter 05
    00:34:34.791                : en:Chapter 06
    00:42:50.625                : en:Chapter 07
    00:48:53.375                : en:Chapter 08
    00:56:53.875                : en:Chapter 09
    01:04:30.083                : en:Chapter 10
    01:12:49.916                : en:Chapter 11
    01:22:15.750                : en:Chapter 12
    01:27:44.333                : en:Chapter 13
    01:34:40.875                : en:Chapter 14
    01:41:53.833                : en:Chapter 15
    01:49:27.416                : en:Chapter 16

     

  • Peso: 29.3 GiB

Sinopsis

Futuro cercano. Lera Arabova es una niña de 15 años que vive con su familia en Vladivostok. El padre de Lera ha estado trabajando en la estación espacial en órbita «Mira» durante muchos años y durante mucho tiempo perdió el contacto con su hija, convirtiéndose solo en una voz en el teléfono. Después de que una lluvia de meteoritos golpee la ciudad, Lera solo tiene una oportunidad de salvar a sus seres queridos y a la ciudad de un nuevo desastre. Su padre la ayuda en esto: a través de los sistemas de vigilancia satelital y el teléfono, aprovecha cada oportunidad para enviar un mensaje a su hija, observando desde arriba desde la estación cada paso.

 

 

Latino: AC3 5.1  –  Ruso. DTS 5.1

Ficha técnica

Video trailer de la película

Enlaces de descarga

Rip de Bluray

Descargar 12 Horas Para el Fin del Mundo (2022) REMUX 1080p Latino – CMHDD




Aportes de DPeliculasHDmega la pass es:dpeliculashdmega.org Aportes de CinemaniaHD la pass es:cinemaniahdd.com Aportes recientes:cinemaniahdd.net
Guardado en : Aventura , Ciencia ficción , Drama , Familia

Películas relacionadas

descargar 12 Horas Para el Fin del Mundo (2022) REMUX 1080p Latino – CMHDD Full 1080p 1080p gratis, 12 Horas Para el Fin del Mundo (2022) REMUX 1080p Latino – CMHDD Full 1080p mega 1 link, 12 Horas Para el Fin del Mundo (2022) REMUX 1080p Latino – CMHDD Full 1080p pelicula completa, descargar 12 Horas Para el Fin del Mundo (2022) REMUX 1080p Latino – CMHDD Full 1080p gratis en mega.

12 Horas Para el Fin del Mundo (2022) REMUX 1080p Latino – CMHDD pelicula full hd, 12 Horas Para el Fin del Mundo (2022) REMUX 1080p Latino – CMHDD mega latino, 12 Horas Para el Fin del Mundo (2022) REMUX 1080p Latino – CMHDD 4k latino, 12 Horas Para el Fin del Mundo (2022) REMUX 1080p Latino – CMHDD pelicula completa, 12 Horas Para el Fin del Mundo (2022) REMUX 1080p Latino – CMHDD descargar gratis, descargar 12 Horas Para el Fin del Mundo (2022) REMUX 1080p Latino – CMHDD pelicula latino, 12 Horas Para el Fin del Mundo (2022) REMUX 1080p Latino – CMHDD 1 link mega, 12 Horas Para el Fin del Mundo (2022) REMUX 1080p Latino – CMHDD 1 link google drive, 12 Horas Para el Fin del Mundo (2022) REMUX 1080p Latino – CMHDD hd 1080p latino.
Comentarios 0