101 dálmatas: La noche de las narices frías (1961) Full 1080p Latino

1.912 vistas
1 estrella2 estrellas3 estrellas4 estrellas5 estrellas (2 votos, promedio: 5,00 de 5)
Cargando…

Información de 101 dálmatas: La noche de las narices frías (1961) Full 1080p Latino

Datos de la película

  • Calidad: Full 1080p
  • Audio: Español Latino AC3 5.1 BLURAY - Ingles DTS 5.1 BLURAY
  • Subtitulos: Español Latino PGS - Ingles PGS
  • Resolución: 1920x1080p
  • Formato: MKV
  • Codec: H.264
  • Encoder: Dracarys
  • Mediainfo: Clic para Mostrar Datos Ver
  • Format                                   : Matroska
    Format version                           : Version 4 / Version 2
    File size                                : 3.37 GiB
    Duration                                 : 1 h 19 min
    Overall bit rate                         : 6 085 kb/s
    Movie name                               : CinemaniaHDD.com
    Encoded date                             : UTC 2018-04-23 03:33:50 / UTC 2018-04-21T06:55:56Z
    Writing application                      : mkvmerge v15.0.0 ('Duel with the Devil') 64-bit
    Writing library                          : libebml v1.3.5 + libmatroska v1.4.5 / Lavf57.7.2

    Video
    ID                                       : 1
    Format                                   : AVC
    Format/Info                              : Advanced Video Codec
    Format profile                           : [email protected]
    Format settings                          : CABAC / 4 Ref Frames
    Format settings, CABAC                   : Yes
    Format settings, RefFrames               : 4 frames
    Codec ID                                 : V_MPEG4/ISO/AVC
    Duration                                 : 1 h 19 min
    Bit rate                                 : 3 815 kb/s
    Width                                    : 1 920 pixels
    Height                                   : 1 080 pixels
    Display aspect ratio                     : 16:9
    Frame rate mode                          : Constant
    Frame rate                               : 23.976 (24000/1001) FPS
    Color space                              : YUV
    Chroma subsampling                       : 4:2:0
    Bit depth                                : 8 bits
    Scan type                                : Progressive
    Bits/(Pixel*Frame)                       : 0.077
    Stream size                              : 2.11 GiB (63%)
    Title                                    : 101 dálmatas: La noche de las narices frías (1961) Full 1080p Latino
    Writing library                          : x264 core 148 r2708 86b7198
    Encoding settings                        : cabac=1 / ref=4 / deblock=1:0:0 / analyse=0x3:0x133 / me=esa / subme=9 / psy=1 / psy_rd=1.00:0.00 / mixed_ref=1 / me_range=16 / chroma_me=1 / trellis=2 / 8x8dct=1 / cqm=0 / deadzone=21,11 / fast_pskip=1 / chroma_qp_offset=-2 / threads=34 / lookahead_threads=2 / sliced_threads=0 / nr=0 / decimate=1 / interlaced=0 / bluray_compat=0 / constrained_intra=0 / bframes=3 / b_pyramid=2 / b_adapt=2 / b_bias=0 / direct=3 / weightb=1 / open_gop=0 / weightp=2 / keyint=240 / keyint_min=24 / scenecut=40 / intra_refresh=0 / rc_lookahead=60 / rc=crf / mbtree=1 / crf=20.0 / qcomp=0.60 / qpmin=0 / qpmax=69 / qpstep=4 / vbv_maxrate=62500 / vbv_bufsize=78125 / crf_max=0.0 / nal_hrd=none / filler=0 / ip_ratio=1.40 / aq=1:1.00
    Language                                 : English
    Default                                  : Yes
    Forced                                   : No
    Color range                              : Limited
    Color primaries                          : BT.709
    Transfer characteristics                 : BT.709
    Matrix coefficients                      : BT.709
    Statistics Tags Issue                    : mkvmerge v15.0.0 ('Duel with the Devil') 64-bit 2018-04-23 03:33:50 / mkvmerge v15.0.0 ('Duel with the Devil') 64-bit 2018-04-23 03:33:50 / UTC 2018-04-21T06:55:56Z
    FromStats_BitRate                        : 3909089
    FromStats_Duration                       : 01:19:16.877000000
    FromStats_FrameCount                     : 114051
    FromStats_StreamSize                     : 2324382027

    Audio #1
    ID                                       : 2
    Format                                   : AC-3
    Format/Info                              : Audio Coding 3
    Format settings, Endianness              : Big
    Codec ID                                 : A_AC3
    Duration                                 : 1 h 19 min
    Bit rate mode                            : Constant
    Bit rate                                 : 640 kb/s
    Channel(s)                               : 6 channels
    Channel positions                        : Front: L C R, Side: L R, LFE
    Sampling rate                            : 48.0 kHz
    Frame rate                               : 31.250 FPS (1536 SPF)
    Bit depth                                : 16 bits
    Compression mode                         : Lossy
    Stream size                              : 363 MiB (11%)
    Language                                 : Spanish
    Service kind                             : Complete Main
    Default                                  : Yes
    Forced                                   : No
    Statistics Tags Issue                    : mkvmerge v15.0.0 ('Duel with the Devil') 64-bit 2018-04-23 03:33:50 / mkvmerge v15.0.0 ('Duel with the Devil') 64-bit 2018-04-23 03:33:50 / UTC 2018-04-21T06:55:56Z
    FromStats_BitRate                        : 640000
    FromStats_Duration                       : 01:19:16.928000000
    FromStats_FrameCount                     : 148654
    FromStats_StreamSize                     : 380554240

    Audio #2
    ID                                       : 3
    Format                                   : DTS
    Format/Info                              : Digital Theater Systems
    Mode                                     : 16
    Format settings, Endianness              : Big
    Codec ID                                 : A_DTS
    Duration                                 : 1 h 19 min
    Bit rate mode                            : Constant
    Bit rate                                 : 1 509 kb/s
    Channel(s)                               : 6 channels
    Channel positions                        : Front: L C R, Side: L R, LFE
    Sampling rate                            : 48.0 kHz
    Frame rate                               : 93.750 FPS (512 SPF)
    Bit depth                                : 24 bits
    Compression mode                         : Lossy
    Stream size                              : 856 MiB (25%)
    Language                                 : English
    Default                                  : No
    Forced                                   : No
    Statistics Tags Issue                    : mkvmerge v15.0.0 ('Duel with the Devil') 64-bit 2018-04-23 03:33:50 / mkvmerge v15.0.0 ('Duel with the Devil') 64-bit 2018-04-23 03:33:50 / UTC 2018-04-21T06:55:56Z
    FromStats_BitRate                        : 1508999
    FromStats_Duration                       : 01:19:16.918000000
    FromStats_FrameCount                     : 445961
    FromStats_StreamSize                     : 897273532

    Text #1
    ID                                       : 4
    Format                                   : PGS
    Muxing mode                              : zlib
    Codec ID                                 : S_HDMV/PGS
    Codec ID/Info                            : Picture based subtitle format used on BDs/HD-DVDs
    Language                                 : English
    Default                                  : No
    Forced                                   : No
    Statistics Tags Issue                    : mkvmerge v15.0.0 ('Duel with the Devil') 64-bit 2018-04-23 03:33:50 / mkvmerge v15.0.0 ('Duel with the Devil') 64-bit 2018-04-23 03:33:50 / UTC 2018-04-21T06:55:56Z
    FromStats_BitRate                        : 42243
    FromStats_Duration                       : 01:17:01.075000000
    FromStats_FrameCount                     : 2374
    FromStats_StreamSize                     : 24401099

    Text #2
    ID                                       : 5
    Format                                   : PGS
    Muxing mode                              : zlib
    Codec ID                                 : S_HDMV/PGS
    Codec ID/Info                            : Picture based subtitle format used on BDs/HD-DVDs
    Language                                 : Spanish
    Default                                  : No
    Forced                                   : No
    Statistics Tags Issue                    : mkvmerge v15.0.0 ('Duel with the Devil') 64-bit 2018-04-23 03:33:50 / mkvmerge v15.0.0 ('Duel with the Devil') 64-bit 2018-04-23 03:33:50 / UTC 2018-04-21T06:55:56Z
    FromStats_BitRate                        : 36847
    FromStats_Duration                       : 01:18:55.063000000
    FromStats_FrameCount                     : 2008
    FromStats_StreamSize                     : 21809272

    Text #3
    ID                                       : 6
    Format                                   : PGS
    Muxing mode                              : zlib
    Codec ID                                 : S_HDMV/PGS
    Codec ID/Info                            : Picture based subtitle format used on BDs/HD-DVDs
    Title                                    : Forzados
    Language                                 : Spanish
    Default                                  : Yes
    Forced                                   : Yes
    Statistics Tags Issue                    : mkvmerge v15.0.0 ('Duel with the Devil') 64-bit 2018-04-23 03:33:50 / mkvmerge v15.0.0 ('Duel with the Devil') 64-bit 2018-04-23 03:33:50 / UTC 2018-04-21T06:55:56Z
    FromStats_BitRate                        : 425
    FromStats_Duration                       : 01:18:55.063000000
    FromStats_FrameCount                     : 30
    FromStats_StreamSize                     : 252114

    Menu
    00:00:00.000                             : :Chapter 1
    00:04:19.134                             : :Chapter 2
    00:06:32.517                             : :Chapter 3
    00:12:33.127                             : :Chapter 4
    00:16:32.700                             : :Chapter 5
    00:22:29.306                             : :Chapter 6
    00:27:22.307                             : :Chapter 7
    00:33:23.335                             : :Chapter 8
    00:37:46.097                             : :Chapter 9
    00:40:54.911                             : :Chapter 10
    00:50:12.343                             : :Chapter 11
    00:57:39.915                             : :Chapter 12
    01:04:16.227                             : :Chapter 13
    01:09:09.145                             : :Chapter 14
    01:16:07.438                             : :Chapter 15
    01:18:45.596                             : :Chapter 16

  • Peso: 3.37 GiB

Sinopsis

Pongo y Perdita, los dalmatas protagonistas, son una feliz pareja canina que vive rodeada de sus cachorros junto a sus amos, Roger y Anita. Pero la felicidad no es eterna y hay una malvada mujer, que vive en una gran mansion, que es la mayor enemiga del perro.Cuando se entera de que los protagonistas tienen nada menos que quince cachorros dalmatas, su sueño de obtener un exclusivo abrigo de piel de los pequeños perros, se convierte en una obsesion. Para conseguirlo contrata a dos ladrones y pone en marcha un malvado plan con el unico fin de secuestrar a los dalmatas.

Ficha técnica

Video trailer de la película

Enlaces de descarga

Rip de Bluray

Descargar 101 dálmatas: La noche de las narices frías (1961) Full 1080p Latino




Aportes de DPeliculasHDmega la pass es:dpeliculashdmega.org Aportes de CinemaniaHD la pass es:cinemaniahdd.com

Películas relacionadas

  • The Dead Lands (2014) 1080p Latino

    2014
    The Dead Lands (2014) 1080p Latino

    0.0 1h 47m 2014

    Tras presenciar cómo su familia es masacrada, Hongi, adolescente hijo de jefe tribal, acudirá a la...

    Director: Toa Fraser

    Género: Acción

    Actores: Xavier Horan

  • Terremoto (2018) Full 1080p Subtitulado

    2018
    Terremoto (2018) Full 1080p Subtitulado

    3.7 1h 46m 2018

    En 1904, un terremoto de magnitud 5,4 sacudió Oslo con el epicentro en “Oslo Graben” bajo la capital...

    Director: John Andreas Andersen

    Género: Aventura

    Actores: Tina Schei

  • Bumblebee (2018) 1080p Latino

    2018
    Bumblebee (2018) 1080p Latino

    5.0 1h 54m 2018

    Sexta entrega de la saga 'Transformers', esta vez centrada en el "hermano pequeño" de los Autobots,...

    Director: Travis Knight

    Género: Acción

    Actores: Yianni Apostolopolous

Comentarios 1
  • Argos - 22 septiembre, 2018

    Muchas gracias por el aporte, descargando