×

¿Problemas para descargar con Mozilla, EDGE? Deshabilita la opción "Abrir vinculos en una pestaña nueva" tal como lo muestra ésta imagen.

10.000 BC (2008) REMUX 1080p Latino – CMHDD

195 vistas

Información de 10.000 BC (2008) REMUX 1080p Latino – CMHDD

Datos de la película

  • Calidad: Full 1080p
  • Audio: Español Latino AC3 5.1 BLURAY - Ingles AC3 5.1 BLURAY
  • Subtitulos: Español Latino PGS
  • Resolución: 19201080p
  • Formato: MKV
  • Codec: H.264
  • Encoder: Dracarys
  • Mediainfo: Clic para Mostrar Datos Ver
  • Format                      : Matroska
    Format version              : Version 4
    File size                   : 15.3 GiB
    Duration                    : 1 h 48 min
    Overall bit rate mode       : Variable
    Overall bit rate            : 20.1 Mb/s
    Movie name                  : 10000 BC (2008) REMUX 1080p Latino - CMHDD
    Encoded date                : UTC 2023-10-22 21:34:14
    Writing application         : mkvmerge v47.0.0 ('Black Flag') 64-bit
    Writing library             : libebml v1.3.10 + libmatroska v1.5.2

    Video
    ID                          : 1
    ID in the original source m : 4113 (0x1011)
    Format                      : VC-1
    Format profile              : Advanced@L3
    Codec ID                    : V_MS/VFW/FOURCC / WVC1
    Codec ID/Hint               : Microsoft
    Duration                    : 1 h 48 min
    Bit rate                    : 16.4 Mb/s
    Width                       : 1 920 pixels
    Height                      : 1 080 pixels
    Display aspect ratio        : 16:9
    Frame rate mode             : Constant
    Frame rate                  : 23.976 (24000/1001) FPS
    Color space                 : YUV
    Chroma subsampling          : 4:2:0
    Bit depth                   : 8 bits
    Scan type                   : Progressive
    Compression mode            : Lossy
    Bits/(Pixel*Frame)          : 0.330
    Stream size                 : 12.5 GiB (82%)
    Language                    : English
    Default                     : No
    Forced                      : No
    Original source medium      : Blu-ray

    Audio #1
    ID                          : 2
    ID in the original source m : 4353 (0x1101)
    Format                      : MLP FBA
    Format/Info                 : Meridian Lossless Packing FBA
    Commercial name             : Dolby TrueHD
    Codec ID                    : A_TRUEHD
    Duration                    : 1 h 48 min
    Bit rate mode               : Variable
    Bit rate                    : 1 666 kb/s
    Maximum bit rate            : 2 871 kb/s
    Channel(s)                  : 6 channels
    Channel layout              : L R C LFE Ls Rs
    Sampling rate               : 48.0 kHz
    Frame rate                  : 1 200.000 FPS (40 SPF)
    Compression mode            : Lossless
    Stream size                 : 1.27 GiB (8%)
    Language                    : English
    Default                     : No
    Forced                      : No
    Original source medium      : Blu-ray

    Audio #2
    ID                          : 3
    Format                      : E-AC-3
    Format/Info                 : Enhanced AC-3
    Commercial name             : Dolby Digital Plus
    Codec ID                    : A_EAC3
    Duration                    : 1 h 48 min
    Bit rate mode               : Constant
    Bit rate                    : 960 kb/s
    Channel(s)                  : 6 channels
    Channel layout              : L R C LFE Ls Rs
    Sampling rate               : 48.0 kHz
    Frame rate                  : 31.250 FPS (1536 SPF)
    Compression mode            : Lossy
    Stream size                 : 748 MiB (5%)
    Language                    : English
    Service kind                : Complete Main
    Default                     : No
    Forced                      : No

    Audio #3
    ID                          : 4
    Format                      : E-AC-3
    Format/Info                 : Enhanced AC-3
    Commercial name             : Dolby Digital Plus
    Codec ID                    : A_EAC3
    Duration                    : 1 h 48 min
    Bit rate mode               : Constant
    Bit rate                    : 960 kb/s
    Channel(s)                  : 6 channels
    Channel layout              : L R C LFE Ls Rs
    Sampling rate               : 48.0 kHz
    Frame rate                  : 31.250 FPS (1536 SPF)
    Compression mode            : Lossy
    Stream size                 : 748 MiB (5%)
    Language                    : Spanish
    Service kind                : Complete Main
    Default                     : Yes
    Forced                      : No

    Text #1
    ID                          : 5
    Format                      : UTF-8
    Codec ID                    : S_TEXT/UTF8
    Codec ID/Info               : UTF-8 Plain Text
    Duration                    : 1 h 9 min
    Bit rate                    : 2 b/s
    Frame rate                  : 0.016 FPS
    Count of elements           : 67
    Stream size                 : 1.44 KiB (0%)
    Language                    : Spanish
    Default                     : Yes
    Forced                      : Yes

    Text #2
    ID                          : 6
    ID in the original source m : 4620 (0x120C)
    Format                      : PGS
    Muxing mode                 : zlib
    Codec ID                    : S_HDMV/PGS
    Codec ID/Info               : Picture based subtitle format used on BDs/HD-DVDs
    Duration                    : 1 h 47 min
    Bit rate                    : 14.7 kb/s
    Frame rate                  : 0.195 FPS
    Count of elements           : 1258
    Stream size                 : 11.3 MiB (0%)
    Language                    : Spanish
    Default                     : No
    Forced                      : No
    Original source medium      : Blu-ray

    Menu
    00:00:00.000                : en:Chapter 01
    00:05:35.585                : en:Chapter 02
    00:09:46.002                : en:Chapter 03
    00:13:39.527                : en:Chapter 04
    00:17:27.129                : en:Chapter 05
    00:20:22.554                : en:Chapter 06
    00:24:47.986                : en:Chapter 07
    00:27:51.419                : en:Chapter 08
    00:30:28.618                : en:Chapter 09
    00:34:41.621                : en:Chapter 10
    00:39:04.300                : en:Chapter 11
    00:44:45.933                : en:Chapter 12
    00:47:53.328                : en:Chapter 13
    00:52:23.932                : en:Chapter 14
    00:56:56.496                : en:Chapter 15
    01:01:34.065                : en:Chapter 16
    01:06:30.611                : en:Chapter 17
    01:10:57.878                : en:Chapter 18
    01:13:46.463                : en:Chapter 19
    01:17:18.300                : en:Chapter 20
    01:19:43.195                : en:Chapter 21
    01:24:17.052                : en:Chapter 22
    01:29:53.971                : en:Chapter 23
    01:32:51.816                : en:Chapter 24
    01:35:40.943                : en:Chapter 25
    01:37:51.907                : en:Chapter 26

     

  • Peso: 15.3 GiB

Sinopsis

Era la época en la que el hombre y la bestia eran salvajes y el gran mamut recorría la Tierra. Una época en la que nacieron las ideas y las creencias que forjaron a la humanidad para siempre. «10.000» narra la historia de un joven cazador (Steven Strait) en su misión de guiar a un ejército a través de un vasto desierto, luchando contra tigres dientes de sable y depredadores prehistóricos, mientras descubre una civilización perdida e intenta rescatar a la mujer que ama.

Ficha técnica

Video trailer de la película

Enlaces de descarga

Rip de Bluray

Descargar 10.000 BC (2008) REMUX 1080p Latino – CMHDD




Aportes de DPeliculasHDmega la pass es:dpeliculashdmega.org Aportes de CinemaniaHD la pass es:cinemaniahdd.com Aportes recientes:cinemaniahdd.net
Guardado en : Acción , Aventura , Drama , Fantasía

Películas relacionadas

descargar 10.000 BC (2008) REMUX 1080p Latino – CMHDD Full 1080p 1080p gratis, 10.000 BC (2008) REMUX 1080p Latino – CMHDD Full 1080p mega 1 link, 10.000 BC (2008) REMUX 1080p Latino – CMHDD Full 1080p pelicula completa, descargar 10.000 BC (2008) REMUX 1080p Latino – CMHDD Full 1080p gratis en mega.

10.000 BC (2008) REMUX 1080p Latino – CMHDD pelicula full hd, 10.000 BC (2008) REMUX 1080p Latino – CMHDD mega latino, 10.000 BC (2008) REMUX 1080p Latino – CMHDD 4k latino, 10.000 BC (2008) REMUX 1080p Latino – CMHDD pelicula completa, 10.000 BC (2008) REMUX 1080p Latino – CMHDD descargar gratis, descargar 10.000 BC (2008) REMUX 1080p Latino – CMHDD pelicula latino, 10.000 BC (2008) REMUX 1080p Latino – CMHDD 1 link mega, 10.000 BC (2008) REMUX 1080p Latino – CMHDD 1 link google drive, 10.000 BC (2008) REMUX 1080p Latino – CMHDD hd 1080p latino.
Comentarios 0