×

¿Problemas para descargar con Mozilla, EDGE? Deshabilita la opción "Abrir vinculos en una pestaña nueva" tal como lo muestra ésta imagen.

100% Lobo (2020) HD 1080p Latino

486 vistas

Información de 100% Lobo (2020) HD 1080p Latino

Datos de la película

  • Calidad: 1080p
  • Audio: Español Latino AC3 5.1 BLURAY - Ingles AC3 5.1 BLURAY
  • Subtitulos: Español Latino SRT- FORZADOS SRT
  • Resolución: 1920x1036p
  • Formato: MKV
  • Codec: H.264
  • Encoder: Melkor
  • Mediainfo: Clic para Mostrar Datos Ver
  • 100 Porciento Lobo (2020) HD 1080p Latino.mkv
    Format                      : Matroska
    Format version              : Version 4
    File size                   : 3.01 GiB
    Duration                    : 1 h 35 min
    Overall bit rate            : 4 501 kb/s
    Movie name                  : 100% Wolf (2020) CinemaniaHDD.Net
    Encoded date                : UTC 2021-03-07 01:38:04
    Writing application         : mkvmerge v51.0.0 ('I Wish') 64-bit
    Writing library             : libebml v1.4.0 + libmatroska v1.6.2
    Attachments                 : CINEMANIAHD.png

    Video
    ID                          : 1
    Format                      : AVC
    Format/Info                 : Advanced Video Codec
    Format profile              : High@L4.1
    Format settings             : CABAC / 4 Ref Frames
    Format settings, CABAC      : Yes
    Format settings, Reference  : 4 frames
    Codec ID                    : V_MPEG4/ISO/AVC
    Duration                    : 1 h 35 min
    Bit rate                    : 3 500 kb/s
    Width                       : 1 920 pixels
    Height                      : 1 036 pixels
    Display aspect ratio        : 1.85:1
    Frame rate mode             : Constant
    Frame rate                  : 24.000 FPS
    Color space                 : YUV
    Chroma subsampling          : 4:2:0
    Bit depth                   : 8 bits
    Scan type                   : Progressive
    Bits/(Pixel*Frame)          : 0.073
    Stream size                 : 2.28 GiB (76%)
    Title                       : HD1080p [CinemaniaHDD]
    Writing library             : x264 core 157 r2935 545de2f
    Encoding settings           : cabac=1 / ref=4 / deblock=1:1:1 / analyse=0x3:0x133 / me=umh / subme=9 / psy=1 / psy_rd=0.40:0.00 / mixed_ref=1 / me_range=16 / chroma_me=1 / trellis=2 / 8x8dct=1 / cqm=0 / deadzone=21,11 / fast_pskip=1 / chroma_qp_offset=-2 / threads=24 / lookahead_threads=2 / sliced_threads=0 / nr=0 / decimate=1 / interlaced=0 / bluray_compat=0 / constrained_intra=0 / bframes=5 / b_pyramid=2 / b_adapt=2 / b_bias=0 / direct=3 / weightb=1 / open_gop=0 / weightp=2 / keyint=240 / keyint_min=24 / scenecut=40 / intra_refresh=0 / rc_lookahead=60 / rc=abr / mbtree=1 / bitrate=3500 / ratetol=1.0 / qcomp=0.60 / qpmin=0 / qpmax=69 / qpstep=4 / vbv_maxrate=62500 / vbv_bufsize=78125 / nal_hrd=none / filler=0 / ip_ratio=1.40 / aq=1:0.60
    Default                     : Yes
    Forced                      : No
    Color range                 : Limited
    Color primaries             : BT.709
    Transfer characteristics    : BT.709
    Matrix coefficients         : BT.709

    Audio #1
    ID                          : 2
    Format                      : AC-3
    Format/Info                 : Audio Coding 3
    Commercial name             : Dolby Digital
    Codec ID                    : A_AC3
    Duration                    : 1 h 35 min
    Bit rate mode               : Constant
    Bit rate                    : 640 kb/s
    Channel(s)                  : 6 channels
    Channel layout              : L R C LFE Ls Rs
    Sampling rate               : 48.0 kHz
    Frame rate                  : 31.250 FPS (1536 SPF)
    Compression mode            : Lossy
    Delay relative to video     : -5 ms
    Stream size                 : 438 MiB (14%)
    Title                       : Español Latino [CinemaniaHDD]
    Language                    : Spanish
    Service kind                : Complete Main
    Default                     : Yes
    Forced                      : No

    Audio #2
    ID                          : 3
    Format                      : AC-3
    Format/Info                 : Audio Coding 3
    Commercial name             : Dolby Digital
    Codec ID                    : A_AC3
    Duration                    : 1 h 35 min
    Bit rate mode               : Constant
    Bit rate                    : 448 kb/s
    Channel(s)                  : 6 channels
    Channel layout              : L R C LFE Ls Rs
    Sampling rate               : 48.0 kHz
    Frame rate                  : 31.250 FPS (1536 SPF)
    Compression mode            : Lossy
    Delay relative to video     : -5 ms
    Stream size                 : 306 MiB (10%)
    Title                       : Ingles [CinemaniaHDD]
    Language                    : English
    Service kind                : Complete Main
    Default                     : No
    Forced                      : No

    Text #1
    ID                          : 4
    Format                      : UTF-8
    Codec ID                    : S_TEXT/UTF8
    Codec ID/Info               : UTF-8 Plain Text
    Duration                    : 35 min 16 s
    Bit rate                    : 0 b/s
    Count of elements           : 4
    Stream size                 : 113 Bytes (0%)
    Title                       : Forzados-SRT [CinemaniaHDD]
    Language                    : Spanish
    Default                     : Yes
    Forced                      : Yes

    Text #2
    ID                          : 5
    Format                      : UTF-8
    Codec ID                    : S_TEXT/UTF8
    Codec ID/Info               : UTF-8 Plain Text
    Duration                    : 1 h 28 min
    Bit rate                    : 51 b/s
    Count of elements           : 1182
    Stream size                 : 33.1 KiB (0%)
    Title                       : Español-SRT [CinemaniaHDD]
    Language                    : Spanish
    Default                     : No
    Forced                      : No

    Text #3
    ID                          : 6
    Format                      : UTF-8
    Codec ID                    : S_TEXT/UTF8
    Codec ID/Info               : UTF-8 Plain Text
    Duration                    : 1 h 32 min
    Bit rate                    : 53 b/s
    Count of elements           : 1798
    Stream size                 : 36.4 KiB (0%)
    Title                       : Ingles-SRT [CinemaniaHDD]
    Language                    : English
    Default                     : No
    Forced                      : No

    Menu
    00:00:00.000                : en:Chapter 1
    00:05:47.042                : en:Chapter 2
    00:14:17.917                : en:Chapter 3
    00:24:05.625                : en:Chapter 4
    00:31:45.167                : en:Chapter 5
    00:38:38.542                : en:Chapter 6
    00:47:44.167                : en:Chapter 7
    00:54:29.292                : en:Chapter 8
    01:03:28.333                : en:Chapter 9
    01:13:32.417                : en:Chapter 10
    01:22:13.792                : en:Chapter 11
    01:28:19.500                : en:Chapter 12

  • Peso: 3.01 GiB

Sinopsis

Descargar 100% Lobo (2020) HD 1080p Latino. Freddy Lupin pertenece a una orgullosa familia de hombres lobo. Confiado de que pronto se convertirá en un hombre lobo de los más temidos, Freddy se queda sorprendido cuando descubre que no es todo lo feroz que esperaba.

Ficha técnica

Video trailer de la película

Enlaces de descarga

Rip de Bluray

Descargar 100% Lobo (2020) HD 1080p Latino




Aportes de DPeliculasHDmega la pass es:dpeliculashdmega.org Aportes de CinemaniaHD la pass es:cinemaniahdd.com
Guardado en : Animación , Familia , Fantasía , HD 1080p

Películas relacionadas

  • Hombre de familia (2000) REMUX 1080p Latino

    Hombre de familia (2000) REMUX 1080p Latino

    2000
    Hombre de familia (2000) REMUX 1080p Latino

    2h 1m 2000

    Descargar Hombre de familia (2000) REMUX 1080p Latino. Jack Campbell es un egocéntrico broker de Wall...

    Director: Robert Schroer

    Género: Comedia

    Actores: Wass Stevens

  • Asústame (2020) HD 1080p Latino

    Asústame (2020) HD 1080p Latino

    2020
    Asústame (2020) HD 1080p Latino

    1h 44m 2020

    Descargar Asústame (2020) HD 1080p Latino. Durante un corte de energía, dos extraños cuentan historias...

    Director: Josh Ruben

    Género: Comedia

    Actores: Rebecca Drysdale

descargar 100% Lobo (2020) HD 1080p Latino 1080p 1080p gratis, 100% Lobo (2020) HD 1080p Latino 1080p mega 1 link, 100% Lobo (2020) HD 1080p Latino 1080p pelicula completa, descargar 100% Lobo (2020) HD 1080p Latino 1080p gratis en mega.

100% Lobo (2020) HD 1080p Latino pelicula full hd, 100% Lobo (2020) HD 1080p Latino mega latino, 100% Lobo (2020) HD 1080p Latino 4k latino, 100% Lobo (2020) HD 1080p Latino pelicula completa, 100% Lobo (2020) HD 1080p Latino descargar gratis, descargar 100% Lobo (2020) HD 1080p Latino pelicula latino, 100% Lobo (2020) HD 1080p Latino 1 link mega, 100% Lobo (2020) HD 1080p Latino 1 link google drive, 100% Lobo (2020) HD 1080p Latino hd 1080p latino.
Comentarios 0