×

¿Problemas para descargar con Mozilla, EDGE? Deshabilita la opción "Abrir vinculos en una pestaña nueva" tal como lo muestra ésta imagen.

100% Lobo (2020) REMUX 1080p Latino

397 vistas

Información de 100% Lobo (2020) REMUX 1080p Latino

Datos de la película

  • Calidad: Full 1080p
  • Audio: Se especifica abajo de la Sinopsis
  • Subtitulos: Español Latino PGS - Ingles PGS
  • Resolución: 1920x1080p
  • Formato: MKV
  • Codec: H.264
  • Encoder: Melkor
  • Mediainfo: Clic para Mostrar Datos Ver
  • 100 Porciento Lobo (2020) REMUX 1080p Latino.mkv
    Format                      : Matroska
    Format version              : Version 4
    File size                   : 20.3 GiB
    Duration                    : 1 h 35 min
    Overall bit rate mode       : Variable
    Overall bit rate            : 30.5 Mb/s
    Movie name                  : 100% Wolf (2020) CinemaniaHDD.Net
    Encoded date                : UTC 2021-03-05 07:59:37
    Writing application         : mkvmerge v51.0.0 ('I Wish') 64-bit
    Writing library             : libebml v1.4.0 + libmatroska v1.6.2
    Attachments                 : CINEMANIAHD.png

    Video
    ID                          : 1
    Format                      : AVC
    Format/Info                 : Advanced Video Codec
    Format profile              : High@L4.1
    Format settings             : CABAC / 4 Ref Frames
    Format settings, CABAC      : Yes
    Format settings, Reference  : 4 frames
    Codec ID                    : V_MPEG4/ISO/AVC
    Duration                    : 1 h 35 min
    Bit rate mode               : Variable
    Bit rate                    : 24.9 Mb/s
    Maximum bit rate            : 30.0 Mb/s
    Width                       : 1 920 pixels
    Height                      : 1 080 pixels
    Display aspect ratio        : 16:9
    Frame rate mode             : Constant
    Frame rate                  : 24.000 FPS
    Color space                 : YUV
    Chroma subsampling          : 4:2:0
    Bit depth                   : 8 bits
    Scan type                   : Progressive
    Bits/(Pixel*Frame)          : 0.500
    Stream size                 : 16.6 GiB (82%)
    Title                       : REMUX HD1080p [CinemaniaHDD]
    Default                     : Yes
    Forced                      : Yes
    Color range                 : Limited
    Color primaries             : BT.709
    Transfer characteristics    : BT.709
    Matrix coefficients         : BT.709

    Audio #1
    ID                          : 2
    Format                      : DTS XLL
    Format/Info                 : Digital Theater Systems
    Commercial name             : DTS-HD Master Audio
    Codec ID                    : A_DTS
    Duration                    : 1 h 35 min
    Bit rate mode               : Variable
    Bit rate                    : 1 985 kb/s
    Channel(s)                  : 6 channels
    Channel layout              : C L R Ls Rs LFE
    Sampling rate               : 48.0 kHz
    Frame rate                  : 93.750 FPS (512 SPF)
    Bit depth                   : 16 bits
    Compression mode            : Lossless
    Stream size                 : 1.33 GiB (7%)
    Title                       : Español Latino [CinemaniaHDD]
    Language                    : Spanish
    Default                     : Yes
    Forced                      : Yes

    Audio #2
    ID                          : 3
    Format                      : DTS XLL
    Format/Info                 : Digital Theater Systems
    Commercial name             : DTS-HD Master Audio
    Codec ID                    : A_DTS
    Duration                    : 1 h 35 min
    Bit rate mode               : Variable
    Bit rate                    : 2 021 kb/s
    Channel(s)                  : 6 channels
    Channel layout              : C L R Ls Rs LFE
    Sampling rate               : 48.0 kHz
    Frame rate                  : 93.750 FPS (512 SPF)
    Bit depth                   : 16 bits
    Compression mode            : Lossless
    Stream size                 : 1.35 GiB (7%)
    Title                       : Ingles [CinemaniaHDD]
    Language                    : English
    Default                     : No
    Forced                      : No

    Audio #3
    ID                          : 4
    Format                      : DTS
    Format/Info                 : Digital Theater Systems
    Codec ID                    : A_DTS
    Duration                    : 1 h 35 min
    Bit rate mode               : Constant
    Bit rate                    : 1 509 kb/s
    Channel(s)                  : 6 channels
    Channel layout              : C L R Ls Rs LFE
    Sampling rate               : 48.0 kHz
    Frame rate                  : 93.750 FPS (512 SPF)
    Bit depth                   : 24 bits
    Compression mode            : Lossy
    Stream size                 : 1.01 GiB (5%)
    Title                       : Español Latino Core DTS [CinemaniaHDD]
    Language                    : Spanish
    Default                     : No
    Forced                      : No

    Text #1
    ID                          : 5
    Format                      : PGS
    Muxing mode                 : zlib
    Codec ID                    : S_HDMV/PGS
    Codec ID/Info               : Picture based subtitle format used on BDs/HD-DVDs
    Duration                    : 1 h 28 min
    Bit rate                    : 32.7 kb/s
    Count of elements           : 1880
    Stream size                 : 20.7 MiB (0%)
    Title                       : Español-PGS [CinemaniaHDD]
    Language                    : Spanish
    Default                     : No
    Forced                      : No

    Text #2
    ID                          : 6
    Format                      : PGS
    Muxing mode                 : zlib
    Codec ID                    : S_HDMV/PGS
    Codec ID/Info               : Picture based subtitle format used on BDs/HD-DVDs
    Duration                    : 1 h 32 min
    Bit rate                    : 40.1 kb/s
    Count of elements           : 3278
    Stream size                 : 26.5 MiB (0%)
    Title                       : Ingles-PGS [CinemaniaHDD]
    Language                    : English
    Default                     : No
    Forced                      : No

    Text #3
    ID                          : 7
    Format                      : UTF-8
    Codec ID                    : S_TEXT/UTF8
    Codec ID/Info               : UTF-8 Plain Text
    Duration                    : 35 min 16 s
    Bit rate                    : 0 b/s
    Count of elements           : 4
    Stream size                 : 113 Bytes (0%)
    Title                       : Forzados-SRT [CinemaniaHDD]
    Language                    : Spanish
    Default                     : Yes
    Forced                      : Yes

    Text #4
    ID                          : 8
    Format                      : UTF-8
    Codec ID                    : S_TEXT/UTF8
    Codec ID/Info               : UTF-8 Plain Text
    Duration                    : 1 h 28 min
    Bit rate                    : 51 b/s
    Count of elements           : 1182
    Stream size                 : 33.1 KiB (0%)
    Title                       : Español-SRT [CinemaniaHDD]
    Language                    : Spanish
    Default                     : No
    Forced                      : No

    Menu
    00:00:00.000                : en:Chapter 1
    00:05:47.042                : en:Chapter 2
    00:14:17.917                : en:Chapter 3
    00:24:05.625                : en:Chapter 4
    00:31:45.167                : en:Chapter 5
    00:38:38.542                : en:Chapter 6
    00:47:44.167                : en:Chapter 7
    00:54:29.292                : en:Chapter 8
    01:03:28.333                : en:Chapter 9
    01:13:32.417                : en:Chapter 10
    01:22:13.792                : en:Chapter 11
    01:28:19.500                : en:Chapter 12

  • Peso: 20.3 GiB

Sinopsis

Descargar 100% Lobo (2020) REMUX 1080p Latino. Freddy Lupin pertenece a una orgullosa familia de hombres lobo. Confiado de que pronto se convertirá en un hombre lobo de los más temidos, Freddy se queda sorprendido cuando descubre que no es todo lo feroz que esperaba.

Español Latino DTS-HD & DTS Core 5.1 Bluray – Ingles DTS-HD 5.1 Bluray

Ficha técnica

Video trailer de la película

Enlaces de descarga

Rip de Bluray

Descargar 100% Lobo (2020) REMUX 1080p Latino




Aportes de DPeliculasHDmega la pass es:dpeliculashdmega.org Aportes de CinemaniaHD la pass es:cinemaniahdd.com
Guardado en : Animación , Familia , Fantasía , Remux

Películas relacionadas

  • Paradise Highway (2022) REMUX 1080p Latino

    Paradise Highway (2022) REMUX 1080p Latino

    2022
    Paradise Highway (2022) REMUX 1080p Latino

    1h 55m 2022

    Descargar Paradise Highway (2022) REMUX 1080p Latino. Un camionero se ha visto obligado a pasar de contrabando...

    Director: Anna Gutto

    Género: Crimen

    Actores: Xavier Scott Evans

  • Noche sin paz (2022) REMUX 1080p Latino

    Noche sin paz (2022) REMUX 1080p Latino

    2022
    Noche sin paz (2022) REMUX 1080p Latino

    1h 41m 2022

    Descargar Noche sin paz (2022) REMUX 1080p Latino. Cuando un equipo de mercenarios irrumpe en Nochebuena...

    Director: Tyshana Hobson

    Género: Acción

    Actores: Yoon Cha-Lee

  • Groundhog Day (1993) REMUX 4K HDR Latino – CMHDD

    Groundhog Day (1993) REMUX 4K HDR Latino – CMHDD

    1993
    Groundhog Day (1993) REMUX 4K HDR Latino – CMHDD

    1h 41m 1993

    Phil, hombre del tiempo de una cadena de televisión, es enviado un año más a Punxstawnwey, a cubrir...

    Director: Sam Hoffman

    Género: Comedia

    Actores: Willie Garson

  • Si no despierto (2017) BD-USA REMUX 1080p Latino

    Si no despierto (2017) BD-USA REMUX 1080p Latino

    2017
    Si no despierto (2017) BD-USA REMUX 1080p Latino

    1h 39m 2017

    Descargar Si no despierto (2017) BD-USA REMUX 1080p Latino. En principio el 12 de febrero es sólo otro...

    Director: Ry Russo-Young

    Género: Drama

    Actores: Zoey Deutch

descargar 100% Lobo (2020) REMUX 1080p Latino Full 1080p 1080p gratis, 100% Lobo (2020) REMUX 1080p Latino Full 1080p mega 1 link, 100% Lobo (2020) REMUX 1080p Latino Full 1080p pelicula completa, descargar 100% Lobo (2020) REMUX 1080p Latino Full 1080p gratis en mega.

100% Lobo (2020) REMUX 1080p Latino pelicula full hd, 100% Lobo (2020) REMUX 1080p Latino mega latino, 100% Lobo (2020) REMUX 1080p Latino 4k latino, 100% Lobo (2020) REMUX 1080p Latino pelicula completa, 100% Lobo (2020) REMUX 1080p Latino descargar gratis, descargar 100% Lobo (2020) REMUX 1080p Latino pelicula latino, 100% Lobo (2020) REMUX 1080p Latino 1 link mega, 100% Lobo (2020) REMUX 1080p Latino 1 link google drive, 100% Lobo (2020) REMUX 1080p Latino hd 1080p latino.
Comentarios 0