×

¿Problemas para descargar con Mozilla, EDGE? Deshabilita la opción "Abrir vinculos en una pestaña nueva" tal como lo muestra ésta imagen.

10 Things We Should Do Before We Break Up (2020) WEB-DL 1080p Latino

328 vistas

Información de 10 Things We Should Do Before We Break Up (2020) WEB-DL 1080p Latino

Datos de la película

  • Calidad: WEBDL
  • Audio: Español Latino AC3 2.0 iTunes - Ingles AC3 5.1 iTunes
  • Subtitulos: Español Latino SRT- FORZADOS SRT
  • Resolución: 1912x1028p
  • Formato: MKV
  • Codec: H.264
  • Encoder: CinemaniaHD
  • Mediainfo: Clic para Mostrar Datos Ver
  • 10 Things We Should Do Before We Break Up (2020) WEB-DL 1080p Latino.mkv
    Format                      : Matroska
    Format version              : Version 4
    File size                   : 2.97 GiB
    Duration                    : 1 h 14 min
    Overall bit rate            : 5 739 kb/s
    Encoded date                : UTC 2020-06-10 22:07:34
    Writing application         : mkvmerge v46.0.0 ('No Deeper Escape') 64-bit
    Writing library             : libebml v1.3.10 + libmatroska v1.5.2

    Video
    ID                          : 1
    Format                      : AVC
    Format/Info                 : Advanced Video Codec
    Format profile              : High@L4
    Format settings             : CABAC / 4 Ref Frames
    Format settings, CABAC      : Yes
    Format settings, Reference  : 4 frames
    Codec ID                    : V_MPEG4/ISO/AVC
    Duration                    : 1 h 14 min
    Bit rate                    : 5 227 kb/s
    Width                       : 1 912 pixels
    Height                      : 1 028 pixels
    Display aspect ratio        : 1.85:1
    Frame rate mode             : Constant
    Frame rate                  : 23.976 (23976/1000) FPS
    Color space                 : YUV
    Chroma subsampling          : 4:2:0
    Bit depth                   : 8 bits
    Scan type                   : Progressive
    Bits/(Pixel*Frame)          : 0.111
    Stream size                 : 2.70 GiB (91%)
    Language                    : English
    Default                     : Yes
    Forced                      : No
    Color range                 : Limited
    Color primaries             : BT.709
    Transfer characteristics    : BT.709
    Matrix coefficients         : BT.709

    Audio #1
    ID                          : 2
    Format                      : AAC LC
    Format/Info                 : Advanced Audio Codec Low Complexity
    Codec ID                    : A_AAC-2
    Duration                    : 1 h 14 min
    Bit rate                    : 126 kb/s
    Channel(s)                  : 2 channels
    Channel layout              : L R
    Sampling rate               : 48.0 kHz
    Frame rate                  : 46.875 FPS (1024 SPF)
    Compression mode            : Lossy
    Delay relative to video     : -42 ms
    Stream size                 : 66.5 MiB (2%)
    Language                    : Spanish
    Default                     : Yes
    Forced                      : No

    Audio #2
    ID                          : 3
    Format                      : AC-3
    Format/Info                 : Audio Coding 3
    Commercial name             : Dolby Digital
    Codec ID                    : A_AC3
    Duration                    : 1 h 14 min
    Bit rate mode               : Constant
    Bit rate                    : 384 kb/s
    Channel(s)                  : 6 channels
    Channel layout              : L R C LFE Ls Rs
    Sampling rate               : 48.0 kHz
    Frame rate                  : 31.250 FPS (1536 SPF)
    Compression mode            : Lossy
    Delay relative to video     : -42 ms
    Stream size                 : 203 MiB (7%)
    Language                    : English
    Service kind                : Complete Main
    Default                     : No
    Forced                      : No

    Text #1
    ID                          : 4
    Format                      : UTF-8
    Codec ID                    : S_TEXT/UTF8
    Codec ID/Info               : UTF-8 Plain Text
    Duration                    : 1 h 3 min
    Bit rate                    : 0 b/s
    Count of elements           : 6
    Stream size                 : 160 Bytes (0%)
    Language                    : Spanish
    Default                     : Yes
    Forced                      : No

    Text #2
    ID                          : 5
    Format                      : UTF-8
    Codec ID                    : S_TEXT/UTF8
    Codec ID/Info               : UTF-8 Plain Text
    Duration                    : 1 h 10 min
    Bit rate                    : 78 b/s
    Count of elements           : 1158
    Stream size                 : 40.8 KiB (0%)
    Language                    : Spanish
    Default                     : No
    Forced                      : No

    Menu
    00:00:00.000                : en:Capítulo 1
    00:11:29.773                : en:Capítulo 2
    00:24:12.577                : en:Capítulo 3
    00:35:52.068                : en:Capítulo 4
    00:45:36.944                : en:Capítulo 5
    00:55:23.572                : en:Capítulo 6
    01:04:12.182                : en:Capítulo 7

  • Peso: 2.97 GiB

Sinopsis

Después de que Abigail, una madre soltera de dos hijos, queda embarazada después de una aventura de una noche con Ben, la pareja poco probable trata de salir adelante.

Ficha técnica

  • Titulo original: 10 Things We Should Do Before We Break Up
  • Fecha de lanzamiento: 05-03-2020 (United States of America)
  • Director: Galt Niederhoffer
  • Género: Comedia, Romance

Video trailer de la película

Enlaces de descarga

Rip de Bluray

Descargar 10 Things We Should Do Before We Break Up (2020) WEB-DL 1080p Latino




Aportes de DPeliculasHDmega la pass es:dpeliculashdmega.org Aportes de CinemaniaHD la pass es:cinemaniahdd.com
Guardado en : Comedia , Romance

Películas relacionadas

descargar 10 Things We Should Do Before We Break Up (2020) WEB-DL 1080p Latino WEBDL 1080p gratis, 10 Things We Should Do Before We Break Up (2020) WEB-DL 1080p Latino WEBDL mega 1 link, 10 Things We Should Do Before We Break Up (2020) WEB-DL 1080p Latino WEBDL pelicula completa, descargar 10 Things We Should Do Before We Break Up (2020) WEB-DL 1080p Latino WEBDL gratis en mega.

10 Things We Should Do Before We Break Up (2020) WEB-DL 1080p Latino pelicula full hd, 10 Things We Should Do Before We Break Up (2020) WEB-DL 1080p Latino mega latino, 10 Things We Should Do Before We Break Up (2020) WEB-DL 1080p Latino 4k latino, 10 Things We Should Do Before We Break Up (2020) WEB-DL 1080p Latino pelicula completa, 10 Things We Should Do Before We Break Up (2020) WEB-DL 1080p Latino descargar gratis, descargar 10 Things We Should Do Before We Break Up (2020) WEB-DL 1080p Latino pelicula latino, 10 Things We Should Do Before We Break Up (2020) WEB-DL 1080p Latino 1 link mega, 10 Things We Should Do Before We Break Up (2020) WEB-DL 1080p Latino 1 link google drive, 10 Things We Should Do Before We Break Up (2020) WEB-DL 1080p Latino hd 1080p latino.
Comentarios 0