×

¿Problemas para descargar con Mozilla, EDGE? Deshabilita la opción "Abrir vinculos en una pestaña nueva" tal como lo muestra ésta imagen.

10 Cosas Que Debemos Hacer Antes de Separarnos (2020) PLACEBO Full HD 1080p Latino

334 vistas

Información de 10 Cosas Que Debemos Hacer Antes de Separarnos (2020) PLACEBO Full HD 1080p Latino

Datos de la película

  • Calidad: Full 1080p
  • Audio: Español Latino AC3 2.0 iTUNES - Ingles DTS 5.1 BURAY
  • Subtitulos: Español Latino SRT- FORZADOS SRT
  • Resolución: 1920x1080p
  • Formato: MKV
  • Codec: H.264
  • Encoder: Melkor
  • Mediainfo: Clic para Mostrar Datos Ver
  • 10 Cosas Que Hacer Antes de Separarnos (2020) PLACEBO 1080p Latino.mkv
    Format                      : Matroska
    Format version              : Version 4
    File size                   : 6.20 GiB
    Duration                    : 1 h 14 min
    Overall bit rate mode       : Variable
    Overall bit rate            : 12.0 Mb/s
    Movie name                  : 10 Things We Should Do Before We Break Up (2020) CinemaniaHDD.Net
    Encoded date                : UTC 2020-07-24 01:50:44
    Writing application         : mkvmerge v46.0.0 ('No Deeper Escape') 64-bit
    Writing library             : libebml v1.3.10 + libmatroska v1.5.2
    Attachments                 : CINEMANIAHD.png

    Video
    ID                          : 1
    Format                      : AVC
    Format/Info                 : Advanced Video Codec
    Format profile              : High@L4.1
    Format settings             : CABAC / 4 Ref Frames
    Format settings, CABAC      : Yes
    Format settings, Reference  : 4 frames
    Codec ID                    : V_MPEG4/ISO/AVC
    Duration                    : 1 h 14 min
    Bit rate                    : 9 626 kb/s
    Width                       : 1 920 pixels
    Height                      : 1 080 pixels
    Display aspect ratio        : 16:9
    Frame rate mode             : Constant
    Frame rate                  : 23.976 (24000/1001) FPS
    Color space                 : YUV
    Chroma subsampling          : 4:2:0
    Bit depth                   : 8 bits
    Scan type                   : Progressive
    Bits/(Pixel*Frame)          : 0.194
    Stream size                 : 4.98 GiB (80%)
    Title                       : Full HD1080p [CinemaniaHDD]
    Writing library             : x264 core 157 r2935 545de2f
    Encoding settings           : cabac=1 / ref=4 / deblock=1:0:0 / analyse=0x3:0x133 / me=tesa / subme=11 / psy=1 / psy_rd=1.00:0.00 / mixed_ref=1 / me_range=24 / chroma_me=1 / trellis=2 / 8x8dct=1 / cqm=0 / deadzone=21,11 / fast_pskip=0 / chroma_qp_offset=-2 / threads=24 / lookahead_threads=6 / sliced_threads=0 / nr=0 / decimate=1 / interlaced=0 / bluray_compat=0 / constrained_intra=0 / bframes=16 / b_pyramid=2 / b_adapt=2 / b_bias=0 / direct=3 / weightb=1 / open_gop=0 / weightp=2 / keyint=240 / keyint_min=24 / scenecut=40 / intra_refresh=0 / rc_lookahead=60 / rc=crf / mbtree=1 / crf=20.0 / qcomp=0.60 / qpmin=0 / qpmax=69 / qpstep=4 / vbv_maxrate=62500 / vbv_bufsize=78125 / crf_max=0.0 / nal_hrd=none / filler=0 / ip_ratio=1.40 / aq=1:1.00
    Default                     : Yes
    Forced                      : Yes
    Color range                 : Limited
    Color primaries             : BT.709
    Transfer characteristics    : BT.709
    Matrix coefficients         : BT.709

    Audio #1
    ID                          : 2
    Format                      : AC-3
    Format/Info                 : Audio Coding 3
    Commercial name             : Dolby Digital
    Codec ID                    : A_AC3
    Duration                    : 1 h 14 min
    Bit rate mode               : Constant
    Bit rate                    : 256 kb/s
    Channel(s)                  : 2 channels
    Channel layout              : L R
    Sampling rate               : 48.0 kHz
    Frame rate                  : 31.250 FPS (1536 SPF)
    Compression mode            : Lossy
    Stream size                 : 136 MiB (2%)
    Title                       : Español Latino [CinemaniaHDD]
    Language                    : Spanish
    Service kind                : Complete Main
    Default                     : Yes
    Forced                      : Yes

    Audio #2
    ID                          : 3
    Format                      : DTS XLL
    Format/Info                 : Digital Theater Systems
    Commercial name             : DTS-HD Master Audio
    Codec ID                    : A_DTS
    Duration                    : 1 h 14 min
    Bit rate mode               : Variable
    Bit rate                    : 2 096 kb/s
    Channel(s)                  : 6 channels
    Channel layout              : C L R Ls Rs LFE
    Sampling rate               : 48.0 kHz
    Frame rate                  : 93.750 FPS (512 SPF)
    Bit depth                   : 16 bits
    Compression mode            : Lossless
    Stream size                 : 1.08 GiB (17%)
    Title                       : Ingles [CinemaniaHDD]
    Language                    : English
    Default                     : No
    Forced                      : No

    Text #1
    ID                          : 4
    Format                      : UTF-8
    Codec ID                    : S_TEXT/UTF8
    Codec ID/Info               : UTF-8 Plain Text
    Duration                    : 1 h 9 min
    Bit rate                    : 1 b/s
    Count of elements           : 24
    Stream size                 : 739 Bytes (0%)
    Title                       : Forzados-SRT [CinemaniaHDD]
    Language                    : Spanish
    Default                     : Yes
    Forced                      : Yes

    Text #2
    ID                          : 5
    Format                      : UTF-8
    Codec ID                    : S_TEXT/UTF8
    Codec ID/Info               : UTF-8 Plain Text
    Duration                    : 1 h 10 min
    Bit rate                    : 78 b/s
    Count of elements           : 1158
    Stream size                 : 40.8 KiB (0%)
    Title                       : Español-SRT [CinemaniaHDD]
    Language                    : Spanish
    Default                     : No
    Forced                      : No

    Text #3
    ID                          : 6
    Format                      : UTF-8
    Codec ID                    : S_TEXT/UTF8
    Codec ID/Info               : UTF-8 Plain Text
    Duration                    : 1 h 9 min
    Bit rate                    : 63 b/s
    Count of elements           : 1374
    Stream size                 : 32.3 KiB (0%)
    Title                       : Ingles-SRT [CinemaniaHDD]
    Language                    : English
    Default                     : No
    Forced                      : No

    Menu
    00:00:00.000                : en:Chapter 1
    00:04:38.236                : en:Chapter 2
    00:12:48.476                : en:Chapter 3
    00:17:42.478                : en:Chapter 4
    00:21:24.950                : en:Chapter 5
    00:25:04.002                : en:Chapter 6
    00:28:54.191                : en:Chapter 7
    00:35:51.024                : en:Chapter 8
    00:39:04.717                : en:Chapter 9
    00:42:59.911                : en:Chapter 10
    00:48:16.143                : en:Chapter 11
    00:51:46.353                : en:Chapter 12
    00:57:52.969                : en:Chapter 13
    01:01:34.941                : en:Chapter 14
    01:07:39.013                : en:Chapter 15
    01:11:17.857                : en:Chapter 16
     

  • Peso: 6.20 GiB

Sinopsis

Descargar 10 Cosas Que Debemos Hacer Antes de Separarnos (2020) PLACEBO Full HD 1080p Latino. Después de que Abigail, una madre soltera de dos hijos, queda embarazada después de una aventura de una noche con Ben, la pareja poco probable trata de salir adelante.

Ficha técnica

Video trailer de la película

Enlaces de descarga

Rip de Bluray

Descargar 10 Cosas Que Debemos Hacer Antes de Separarnos (2020) PLACEBO Full HD 1080p Latino




Aportes de DPeliculasHDmega la pass es:dpeliculashdmega.org Aportes de CinemaniaHD la pass es:cinemaniahdd.com

Películas relacionadas

descargar 10 Cosas Que Debemos Hacer Antes de Separarnos (2020) PLACEBO Full HD 1080p Latino Full 1080p 1080p gratis, 10 Cosas Que Debemos Hacer Antes de Separarnos (2020) PLACEBO Full HD 1080p Latino Full 1080p mega 1 link, 10 Cosas Que Debemos Hacer Antes de Separarnos (2020) PLACEBO Full HD 1080p Latino Full 1080p pelicula completa, descargar 10 Cosas Que Debemos Hacer Antes de Separarnos (2020) PLACEBO Full HD 1080p Latino Full 1080p gratis en mega.

10 Cosas Que Debemos Hacer Antes de Separarnos (2020) PLACEBO Full HD 1080p Latino pelicula full hd, 10 Cosas Que Debemos Hacer Antes de Separarnos (2020) PLACEBO Full HD 1080p Latino mega latino, 10 Cosas Que Debemos Hacer Antes de Separarnos (2020) PLACEBO Full HD 1080p Latino 4k latino, 10 Cosas Que Debemos Hacer Antes de Separarnos (2020) PLACEBO Full HD 1080p Latino pelicula completa, 10 Cosas Que Debemos Hacer Antes de Separarnos (2020) PLACEBO Full HD 1080p Latino descargar gratis, descargar 10 Cosas Que Debemos Hacer Antes de Separarnos (2020) PLACEBO Full HD 1080p Latino pelicula latino, 10 Cosas Que Debemos Hacer Antes de Separarnos (2020) PLACEBO Full HD 1080p Latino 1 link mega, 10 Cosas Que Debemos Hacer Antes de Separarnos (2020) PLACEBO Full HD 1080p Latino 1 link google drive, 10 Cosas Que Debemos Hacer Antes de Separarnos (2020) PLACEBO Full HD 1080p Latino hd 1080p latino.
Comentarios 0