×

¿Problemas para descargar con Mozilla, EDGE? Deshabilita la opción "Abrir vinculos en una pestaña nueva" tal como lo muestra ésta imagen.

10 Things I Hate About You (1999) REMUX 1080p Latino – CMHDD

227 vistas

Información de 10 Things I Hate About You (1999) REMUX 1080p Latino – CMHDD

Datos de la película

  • Calidad: Full 1080p
  • Audio: Español Latino AC3 5.1 BLURAY - Ingles DTS 5.1 BLURAY
  • Subtitulos: Español Latino PGS
  • Resolución: 1920x1080p
  • Formato: MKV
  • Codec: H.264
  • Encoder: DRacarys
  • Mediainfo: Clic para Mostrar Datos Ver
  • Format                      : Matroska
    Format version              : Version 4
    File size                   : 21.5 GiB
    Duration                    : 1 h 37 min
    Overall bit rate mode       : Variable
    Overall bit rate            : 31.5 Mb/s
    Movie name                  : 10 Things I Hate About You (1999) REMU 1080p Latino - CMHDD
    Encoded date                : UTC 2023-05-30 02:48:54
    Writing application         : mkvmerge v47.0.0 ('Black Flag') 64-bit
    Writing library             : libebml v1.3.10 + libmatroska v1.5.2
    Cover                       : Yes
    Attachments                 : cover.jpg

    Video
    ID                          : 1
    ID in the original source m : 4113 (0x1011)
    Format                      : AVC
    Format/Info                 : Advanced Video Codec
    Format profile              : High@L4.1
    Format settings             : CABAC / 4 Ref Frames
    Format settings, CABAC      : Yes
    Format settings, Reference  : 4 frames
    Format settings, GOP        : M=3, N=12
    Codec ID                    : V_MPEG4/ISO/AVC
    Duration                    : 1 h 37 min
    Bit rate mode               : Variable
    Bit rate                    : 28.0 Mb/s
    Maximum bit rate            : 34.0 Mb/s
    Width                       : 1 920 pixels
    Height                      : 1 080 pixels
    Display aspect ratio        : 16:9
    Frame rate mode             : Constant
    Frame rate                  : 23.976 (24000/1001) FPS
    Color space                 : YUV
    Chroma subsampling          : 4:2:0
    Bit depth                   : 8 bits
    Scan type                   : Progressive
    Bits/(Pixel*Frame)          : 0.563
    Stream size                 : 19.1 GiB (89%)
    Default                     : Yes
    Forced                      : No
    Color range                 : Limited
    Color primaries             : BT.709
    Transfer characteristics    : BT.709
    Matrix coefficients         : BT.709
    Original source medium      : Blu-ray

    Audio #1
    ID                          : 2
    ID in the original source m : 4352 (0x1100)
    Format                      : DTS XLL
    Format/Info                 : Digital Theater Systems
    Commercial name             : DTS-HD Master Audio
    Codec ID                    : A_DTS
    Duration                    : 1 h 37 min
    Bit rate mode               : Variable
    Bit rate                    : 2 928 kb/s
    Channel(s)                  : 6 channels
    Channel layout              : C L R Ls Rs LFE
    Sampling rate               : 48.0 kHz
    Frame rate                  : 93.750 FPS (512 SPF)
    Bit depth                   : 24 bits
    Compression mode            : Lossless
    Stream size                 : 2.00 GiB (9%)
    Language                    : English
    Default                     : No
    Forced                      : No
    Original source medium      : Blu-ray

    Audio #2
    ID                          : 3
    ID in the original source m : 4353 (0x1101)
    Format                      : AC-3
    Format/Info                 : Audio Coding 3
    Commercial name             : Dolby Digital
    Codec ID                    : A_AC3
    Duration                    : 1 h 37 min
    Bit rate mode               : Constant
    Bit rate                    : 640 kb/s
    Channel(s)                  : 6 channels
    Channel layout              : L R C LFE Ls Rs
    Sampling rate               : 48.0 kHz
    Frame rate                  : 31.250 FPS (1536 SPF)
    Compression mode            : Lossy
    Stream size                 : 447 MiB (2%)
    Language                    : Spanish
    Service kind                : Complete Main
    Default                     : Yes
    Forced                      : No
    Original source medium      : Blu-ray

    Text
    ID                          : 4
    ID in the original source m : 4611 (0x1203)
    Format                      : PGS
    Muxing mode                 : zlib
    Codec ID                    : S_HDMV/PGS
    Codec ID/Info               : Picture based subtitle format used on BDs/HD-DVDs
    Duration                    : 1 h 36 min
    Bit rate                    : 36.4 kb/s
    Frame rate                  : 0.405 FPS
    Count of elements           : 2354
    Stream size                 : 25.2 MiB (0%)
    Language                    : Spanish
    Default                     : No
    Forced                      : No
    Original source medium      : Blu-ray

    Menu
    00:00:00.000                : en:Capítulo 01
    00:05:44.469                : en:Capítulo 02
    00:12:34.128                : en:Capítulo 03
    00:15:51.283                : en:Capítulo 04
    00:21:54.396                : en:Capítulo 05
    00:25:59.391                : en:Capítulo 06
    00:31:53.494                : en:Capítulo 07
    00:36:00.741                : en:Capítulo 08
    00:41:40.998                : en:Capítulo 09
    00:51:32.631                : en:Capítulo 10
    00:56:35.350                : en:Capítulo 11
    01:00:01.222                : en:Capítulo 12
    01:03:02.361                : en:Capítulo 13
    01:05:06.485                : en:Capítulo 14
    01:07:39.597                : en:Capítulo 15
    01:10:15.461                : en:Capítulo 16
    01:14:55.491                : en:Capítulo 17
    01:18:12.187                : en:Capítulo 18
    01:25:58.111                : en:Capítulo 19
    01:29:08.718                : en:Capítulo 20
    01:32:11.192                : en:Capítulo 21

  • Peso: 21.5 GiB

Sinopsis

Las hermanas Stratford son muy distintas. La guapa y popular Bianca nunca ha salido con un chico, y Kat, su hermana mayor, es una bruja con muy mal genio, y algo arisca, que se ha propuesto rechazar a cualquier chico que demuestre el más mínimo interés por ella. Desgraciadamente, el estricto reglamento que rige el hogar de los Stratford prohibe a Blanca tener novio hasta que su insoportable hermana tenga uno; situación que parece más que improbable teniendo en cuenta que Kat lleva una vida social desastrosa. Blanca está desesperada por ir al baile de fin de curso. Pero su pretendiente, Cameron, guarda una sorpresa…

Ficha técnica

Video trailer de la película

Enlaces de descarga

Rip de Bluray

Descargar 10 Things I Hate About You (1999) REMUX 1080p Latino – CMHDD


Aportes de DPeliculasHDmega la pass es:dpeliculashdmega.org Aportes de CinemaniaHD la pass es:cinemaniahdd.com Aportes recientes:cinemaniahdd.net
Guardado en : Comedia , Drama , Romance

Películas relacionadas

descargar 10 Things I Hate About You (1999) REMUX 1080p Latino – CMHDD Full 1080p 1080p gratis, 10 Things I Hate About You (1999) REMUX 1080p Latino – CMHDD Full 1080p mega 1 link, 10 Things I Hate About You (1999) REMUX 1080p Latino – CMHDD Full 1080p pelicula completa, descargar 10 Things I Hate About You (1999) REMUX 1080p Latino – CMHDD Full 1080p gratis en mega.

10 Things I Hate About You (1999) REMUX 1080p Latino – CMHDD pelicula full hd, 10 Things I Hate About You (1999) REMUX 1080p Latino – CMHDD mega latino, 10 Things I Hate About You (1999) REMUX 1080p Latino – CMHDD 4k latino, 10 Things I Hate About You (1999) REMUX 1080p Latino – CMHDD pelicula completa, 10 Things I Hate About You (1999) REMUX 1080p Latino – CMHDD descargar gratis, descargar 10 Things I Hate About You (1999) REMUX 1080p Latino – CMHDD pelicula latino, 10 Things I Hate About You (1999) REMUX 1080p Latino – CMHDD 1 link mega, 10 Things I Hate About You (1999) REMUX 1080p Latino – CMHDD 1 link google drive, 10 Things I Hate About You (1999) REMUX 1080p Latino – CMHDD hd 1080p latino.
Comentarios 0