×

¿Problemas para descargar con Mozilla, EDGE? Deshabilita la opción "Abrir vinculos en una pestaña nueva" tal como lo muestra ésta imagen.

10 Horas Para o Natal (2020) AMZN WEB-DL 1080p Latino

144 vistas

Información de 10 Horas Para o Natal (2020) AMZN WEB-DL 1080p Latino

Datos de la película

  • Calidad: WEBDL
  • Audio: Español Latino E-AC3 5.1 AMAZON - Ingles E-AC3 5.1 AMAZON
  • Subtitulos: Español Latino SRT- FORZADOS SRT
  • Resolución: 1920x1080
  • Formato: MKV
  • Codec: H.264
  • Encoder: cinemaniahdd
  • Mediainfo: Clic para Mostrar Datos Ver
  • 10 Horas Para o Natal (2020) AMZN WEB-DL 1080p Latino [CNMNHDD].mkv
    Format                      : Matroska
    Format version              : Version 4
    File size                   : 7.35 GiB
    Duration                    : 1 h 32 min
    Overall bit rate            : 11.4 Mb/s
    Movie name                  : 10 Horas Para o Natal (2020) - CinemaniaHDD.Net
    Encoded date                : UTC 2021-04-09 00:07:41
    Writing application         : mkvmerge v51.0.0 ('I Wish') 64-bit
    Writing library             : libebml v1.4.0 + libmatroska v1.6.2

    Video
    ID                          : 1
    Format                      : AVC
    Format/Info                 : Advanced Video Codec
    Format profile              : High@L4
    Format settings             : CABAC / 4 Ref Frames
    Format settings, CABAC      : Yes
    Format settings, Reference  : 4 frames
    Codec ID                    : V_MPEG4/ISO/AVC
    Duration                    : 1 h 32 min
    Bit rate mode               : Constant
    Bit rate                    : 9 492 kb/s
    Nominal bit rate            : 10 000 kb/s
    Width                       : 1 920 pixels
    Height                      : 1 040 pixels
    Display aspect ratio        : 1.85:1
    Frame rate mode             : Constant
    Frame rate                  : 23.976 (24000/1001) FPS
    Color space                 : YUV
    Chroma subsampling          : 4:2:0
    Bit depth                   : 8 bits
    Scan type                   : Progressive
    Bits/(Pixel*Frame)          : 0.198
    Stream size                 : 6.11 GiB (83%)
    Title                       : CinemaniaHDD
    Language                    : English
    Default                     : Yes
    Forced                      : No
    Color range                 : Limited
    Color primaries             : BT.709
    Transfer characteristics    : BT.709
    Matrix coefficients         : BT.709

    Audio #1
    ID                          : 2
    Format                      : AC-3
    Format/Info                 : Audio Coding 3
    Commercial name             : Dolby Digital
    Codec ID                    : A_AC3
    Duration                    : 1 h 32 min
    Bit rate mode               : Constant
    Bit rate                    : 640 kb/s
    Channel(s)                  : 6 channels
    Channel layout              : L R C LFE Ls Rs
    Sampling rate               : 48.0 kHz
    Frame rate                  : 31.250 FPS (1536 SPF)
    Compression mode            : Lossy
    Stream size                 : 422 MiB (6%)
    Title                       : Español latino - AC3 [CinemaniaHDD]
    Language                    : Spanish
    Service kind                : Complete Main
    Default                     : Yes
    Forced                      : No

    Audio #2
    ID                          : 3
    Format                      : E-AC-3
    Format/Info                 : Enhanced AC-3
    Commercial name             : Dolby Digital Plus
    Codec ID                    : A_EAC3
    Duration                    : 1 h 32 min
    Bit rate mode               : Constant
    Bit rate                    : 640 kb/s
    Channel(s)                  : 6 channels
    Channel layout              : L R C LFE Ls Rs
    Sampling rate               : 48.0 kHz
    Frame rate                  : 31.250 FPS (1536 SPF)
    Compression mode            : Lossy
    Stream size                 : 422 MiB (6%)
    Title                       : Español latino - E-AC3 [CinemaniaHDD]
    Language                    : Spanish
    Service kind                : Complete Main
    Default                     : No
    Forced                      : No

    Audio #3
    ID                          : 4
    Format                      : E-AC-3
    Format/Info                 : Enhanced AC-3
    Commercial name             : Dolby Digital Plus
    Codec ID                    : A_EAC3
    Duration                    : 1 h 32 min
    Bit rate mode               : Constant
    Bit rate                    : 640 kb/s
    Channel(s)                  : 6 channels
    Channel layout              : L R C LFE Ls Rs
    Sampling rate               : 48.0 kHz
    Frame rate                  : 31.250 FPS (1536 SPF)
    Compression mode            : Lossy
    Stream size                 : 422 MiB (6%)
    Title                       : Inglés - E-AC3 [CinemaniaHDD]
    Language                    : English
    Service kind                : Complete Main
    Default                     : No
    Forced                      : No

    Text #1
    ID                          : 5
    Format                      : UTF-8
    Codec ID                    : S_TEXT/UTF8
    Codec ID/Info               : UTF-8 Plain Text
    Duration                    : 1 h 19 min
    Bit rate                    : 0 b/s
    Count of elements           : 9
    Stream size                 : 336 Bytes (0%)
    Title                       : Forzados [CinemaniaHDD]
    Language                    : Spanish
    Default                     : Yes
    Forced                      : Yes

    Text #2
    ID                          : 6
    Format                      : UTF-8
    Codec ID                    : S_TEXT/UTF8
    Codec ID/Info               : UTF-8 Plain Text
    Duration                    : 1 h 25 min
    Bit rate                    : 70 b/s
    Count of elements           : 1397
    Stream size                 : 44.6 KiB (0%)
    Title                       : Español latino [CinemaniaHDD]
    Language                    : Spanish
    Default                     : No
    Forced                      : No

    Text #3
    ID                          : 7
    Format                      : UTF-8
    Codec ID                    : S_TEXT/UTF8
    Codec ID/Info               : UTF-8 Plain Text
    Duration                    : 1 h 25 min
    Bit rate                    : 61 b/s
    Count of elements           : 1519
    Stream size                 : 38.5 KiB (0%)
    Title                       : Inglés [CC] [CinemaniaHDD]
    Language                    : English
    Default                     : No
    Forced                      : No

    Menu
    00:00:00.000                : :Studio Logo
    00:02:14.000                : :Opening Credits
    00:03:07.000                : :Scene 3
    00:09:59.000                : :Title Sequence
    00:10:06.000                : :Scene 5
    00:20:33.000                : :Scene 6
    00:32:58.000                : :Scene 7
    00:44:33.000                : :Scene 8
    00:53:23.000                : :Scene 9
    00:59:45.000                : :Scene 10
    01:07:41.000                : :Scene 11
    01:15:50.000                : :Scene 12
    01:25:33.000                : :Scene 13
    01:26:31.000                : :End Credits

     

  • Peso: 7.35 GiB

Sinopsis

Cansados de passar noites de Natal sem graça após a separação dos pais, os irmãos Julia, Miguel e Bia bolam um plano para tentar reunir novamente a família e celebrar a chegada do Papai Noel.

Ficha técnica

  • Titulo original: 10 Horas Para o Natal
  • Fecha de lanzamiento: 03-12-2020 (Brazil)
  • Director: Cris D'amato
  • Género: Comedia, Familia

Video trailer de la película

Enlaces de descarga

Rip de Bluray

Descargar 10 Horas Para o Natal (2020) AMZN WEB-DL 1080p Latino




Aportes de DPeliculasHDmega la pass es:dpeliculashdmega.org Aportes de CinemaniaHD la pass es:cinemaniahdd.com
Guardado en : Comedia , Familia

Películas relacionadas

descargar 10 Horas Para o Natal (2020) AMZN WEB-DL 1080p Latino WEBDL 1080p gratis, 10 Horas Para o Natal (2020) AMZN WEB-DL 1080p Latino WEBDL mega 1 link, 10 Horas Para o Natal (2020) AMZN WEB-DL 1080p Latino WEBDL pelicula completa, descargar 10 Horas Para o Natal (2020) AMZN WEB-DL 1080p Latino WEBDL gratis en mega.

10 Horas Para o Natal (2020) AMZN WEB-DL 1080p Latino pelicula full hd, 10 Horas Para o Natal (2020) AMZN WEB-DL 1080p Latino mega latino, 10 Horas Para o Natal (2020) AMZN WEB-DL 1080p Latino 4k latino, 10 Horas Para o Natal (2020) AMZN WEB-DL 1080p Latino pelicula completa, 10 Horas Para o Natal (2020) AMZN WEB-DL 1080p Latino descargar gratis, descargar 10 Horas Para o Natal (2020) AMZN WEB-DL 1080p Latino pelicula latino, 10 Horas Para o Natal (2020) AMZN WEB-DL 1080p Latino 1 link mega, 10 Horas Para o Natal (2020) AMZN WEB-DL 1080p Latino 1 link google drive, 10 Horas Para o Natal (2020) AMZN WEB-DL 1080p Latino hd 1080p latino.
Comentarios 0