×

¿Problemas para descargar con Mozilla, EDGE? Deshabilita la opción "Abrir vinculos en una pestaña nueva" tal como lo muestra ésta imagen.

10 Cloverfield Lane (2016) REMUX 4K HDR Latino – CMHDD

240 vistas

Información de 10 Cloverfield Lane (2016) REMUX 4K HDR Latino – CMHDD

Datos de la película

  • Calidad: 4K HDR
  • Audio: Español Latino AC3 5.1 BLURAY - Ingles AC3 5.1 BLURAY
  • Subtitulos: Español Latino PGS
  • Resolución: 3840x2160p
  • Formato: MKV
  • Codec: H.264
  • Encoder: Dracarys
  • Mediainfo: Clic para Mostrar Datos Ver
  • Format                      : Matroska
    Format version              : Version 4
    File size                   : 42.8 GiB
    Duration                    : 1 h 43 min
    Overall bit rate mode       : Variable
    Overall bit rate            : 59.1 Mb/s
    Movie name                  : 10 Cloverfield Lane (2016) REMUX 4K HDR Latino - CMHDD
    Encoded date                : UTC 2023-12-13 03:04:41
    Writing application         : mkvmerge v47.0.0 ('Black Flag') 64-bit
    Writing library             : libebml v1.3.10 + libmatroska v1.5.2

    Video
    ID                          : 1
    ID in the original source m : 4113 (0x1011)
    Format                      : HEVC
    Format/Info                 : High Efficiency Video Coding
    Format profile              : Main 10@L5.1@High
    HDR format                  : SMPTE ST 2086, HDR10 compatible
    Codec ID                    : V_MPEGH/ISO/HEVC
    Duration                    : 1 h 43 min
    Bit rate                    : 53.2 Mb/s
    Width                       : 3 840 pixels
    Height                      : 2 160 pixels
    Display aspect ratio        : 16:9
    Frame rate mode             : Constant
    Frame rate                  : 23.976 (24000/1001) FPS
    Color space                 : YUV
    Chroma subsampling          : 4:2:0 (Type 2)
    Bit depth                   : 10 bits
    Bits/(Pixel*Frame)          : 0.267
    Stream size                 : 38.5 GiB (90%)
    Language                    : English
    Default                     : Yes
    Forced                      : No
    Color range                 : Limited
    Color primaries             : BT.2020
    Transfer characteristics    : PQ
    Matrix coefficients         : BT.2020 non-constant
    Mastering display color pri : Display P3
    Mastering display luminance : min: 0.0001 cd/m2, max: 1000 cd/m2
    Original source medium      : Blu-ray

    Audio #1
    ID                          : 2
    Format                      : AC-3
    Format/Info                 : Audio Coding 3
    Commercial name             : Dolby Digital
    Codec ID                    : A_AC3
    Duration                    : 1 h 43 min
    Bit rate mode               : Constant
    Bit rate                    : 640 kb/s
    Channel(s)                  : 6 channels
    Channel layout              : L R C LFE Ls Rs
    Sampling rate               : 48.0 kHz
    Frame rate                  : 31.250 FPS (1536 SPF)
    Compression mode            : Lossy
    Stream size                 : 474 MiB (1%)
    Language                    : Spanish
    Service kind                : Complete Main
    Default                     : Yes
    Forced                      : Yes

    Audio #2
    ID                          : 3
    Format                      : AC-3
    Format/Info                 : Audio Coding 3
    Commercial name             : Dolby Digital
    Format settings             : Dolby Surround EX
    Codec ID                    : A_AC3
    Duration                    : 1 h 43 min
    Bit rate mode               : Constant
    Bit rate                    : 640 kb/s
    Channel(s)                  : 6 channels
    Channel layout              : L R C LFE Ls Rs
    Sampling rate               : 48.0 kHz
    Frame rate                  : 31.250 FPS (1536 SPF)
    Compression mode            : Lossy
    Stream size                 : 474 MiB (1%)
    Language                    : English
    Service kind                : Complete Main
    Default                     : No
    Forced                      : No

    Audio #3
    ID                          : 4
    Format                      : MLP FBA 16-ch
    Format/Info                 : Meridian Lossless Packing FBA with 16-channel presentation
    Commercial name             : Dolby TrueHD with Dolby Atmos
    Codec ID                    : A_TRUEHD
    Duration                    : 1 h 43 min
    Bit rate mode               : Variable
    Bit rate                    : 4 614 kb/s
    Maximum bit rate            : 8 544 kb/s
    Channel(s)                  : 8 channels
    Channel layout              : L R C LFE Ls Rs Lb Rb
    Sampling rate               : 48.0 kHz
    Frame rate                  : 1 200.000 FPS (40 SPF)
    Compression mode            : Lossless
    Stream size                 : 3.34 GiB (8%)
    Language                    : English
    Default                     : No
    Forced                      : No
    Number of dynamic objects   : 11
    Bed channel count           : 1 channel
    Bed channel configuration   : LFE

    Text #1
    ID                          : 5
    Format                      : UTF-8
    Codec ID                    : S_TEXT/UTF8
    Codec ID/Info               : UTF-8 Plain Text
    Duration                    : 1 h 18 min
    Bit rate                    : 0 b/s
    Frame rate                  : 0.003 FPS
    Count of elements           : 15
    Stream size                 : 344 Bytes (0%)
    Language                    : Spanish
    Default                     : Yes
    Forced                      : Yes

    Text #2
    ID                          : 6
    Format                      : UTF-8
    Codec ID                    : S_TEXT/UTF8
    Codec ID/Info               : UTF-8 Plain Text
    Duration                    : 1 h 32 min
    Bit rate                    : 35 b/s
    Frame rate                  : 0.140 FPS
    Count of elements           : 778
    Stream size                 : 23.8 KiB (0%)
    Language                    : Spanish
    Default                     : No
    Forced                      : No

    Text #3
    ID                          : 7
    ID in the original source m : 4771 (0x12A3)
    Format                      : PGS
    Muxing mode                 : zlib
    Codec ID                    : S_HDMV/PGS
    Codec ID/Info               : Picture based subtitle format used on BDs/HD-DVDs
    Duration                    : 1 h 39 min
    Bit rate                    : 19.3 kb/s
    Frame rate                  : 0.262 FPS
    Count of elements           : 1560
    Stream size                 : 13.7 MiB (0%)
    Language                    : Spanish
    Default                     : No
    Forced                      : No
    Original source medium      : Blu-ray

    Menu #1
    00:00:00.000                : Chapter 01
    00:05:55.605                : Chapter 02
    00:14:52.517                : Chapter 03
    00:19:18.157                : Chapter 04
    00:24:11.992                : Chapter 05
    00:32:21.940                : Chapter 06
    00:42:59.243                : Chapter 07
    00:47:47.740                : Chapter 08
    00:53:37.089                : Chapter 09
    00:57:00.626                : Chapter 10
    01:03:10.745                : Chapter 11
    01:11:20.193                : Chapter 12
    01:15:49.420                : Chapter 13
    01:24:21.265                : Chapter 14
    01:28:19.085                : Chapter 15
    01:37:31.512                : Chapter 16

    Menu #2
    00:00:00.000                : en:00:00:00.000
    00:05:55.605                : en:00:05:55.605
    00:14:52.517                : en:00:14:52.517
    00:19:18.157                : en:00:19:18.157
    00:24:11.992                : en:00:24:11.992
    00:32:21.940                : en:00:32:21.940
    00:42:59.243                : en:00:42:59.243
    00:47:47.740                : en:00:47:47.740
    00:53:37.089                : en:00:53:37.089
    00:57:00.626                : en:00:57:00.626
    01:03:10.745                : en:01:03:10.745
    01:11:20.193                : en:01:11:20.193
    01:15:49.420                : en:01:15:49.420
    01:24:21.265                : en:01:24:21.265
    01:28:19.085                : en:01:28:19.085
    01:37:31.512                : en:01:37:31.512

     

  • Peso: 42.8 GiB

Sinopsis

Una joven sufre un accidente de coche. Cuando despierta se encuentra encerrada en una celda bajo tierra, secuestrada por un hombre extraño que dice haberla salvado del día del juicio final. El excéntrico captor asegura que el exterior es inhabitable por culpa de un terrible ataque químico, algo que no sabe si creer. Es así como comienza su pesadilla, en una espiral de desconocimiento. La mente del criminal es infranqueable, y ella tendrá que intentar analizar a su enemigo para conseguir sobrevivir.

Ficha técnica

Video trailer de la película

Enlaces de descarga

Rip de Bluray

Descargar 10 Cloverfield Lane (2016) REMUX 4K HDR Latino – CMHDD




Aportes de DPeliculasHDmega la pass es:dpeliculashdmega.org Aportes de CinemaniaHD la pass es:cinemaniahdd.com Aportes recientes:cinemaniahdd.net
Guardado en : Ciencia ficción , Drama , Suspenso , Terror

Películas relacionadas

  • El Oso (2022) Temporada 2 WEB-DL 1080p Latino

    El Oso (2022) Temporada 2 WEB-DL 1080p Latino

    2022
    El Oso (2022) Temporada 2 WEB-DL 1080p Latino

    0h 0m 2022

    Descargar El Oso (2022) Temporada 2 WEB-DL 1080p Latino. Carmy, un joven chef de alta cocina, vuelve...

    Director: Christopher Storer

    Género: Comedia

    Actores: Matty Matheson

  • El Oso (2022) Temporada 1 WEB-DL 1080p Latino

    El Oso (2022) Temporada 1 WEB-DL 1080p Latino

    2022
    El Oso (2022) Temporada 1 WEB-DL 1080p Latino

    0h 0m 2022

    Descargar El Oso (2022) Temporada 1 WEB-DL 1080p Latino. Carmy, un joven chef de alta cocina, vuelve...

    Director: Christopher Storer

    Género: Comedia

    Actores: Matty Matheson

  • Wolves (2022) AMZN WEB-DL 1080p Latino

    Wolves (2022) AMZN WEB-DL 1080p Latino

    2022
    Wolves (2022) AMZN WEB-DL 1080p Latino

    1h 43m 2022

    Un joven solitario se depara con una serie de crímenes sin resolver, que involucran animales mutilados...

    Director: Danny Dunlop

    Género: Crimen

    Actores: Rod Keith

  • Tarot (2024) REMUX 1080p Latino-CMHDD

    Tarot (2024) REMUX 1080p Latino-CMHDD

    2024
    Tarot (2024) REMUX 1080p Latino-CMHDD

    1h 32m 2024

    Descargar Tarot (2024) REMUX 1080p Latino-CMHDD. Un grupo de amigos de la universidad comienzan a morir...

    Director: Spenser Cohen

    Género: Remux

    Actores: Wolfgang Novogratz

descargar 10 Cloverfield Lane (2016) REMUX 4K HDR Latino – CMHDD 4K HDR 1080p gratis, 10 Cloverfield Lane (2016) REMUX 4K HDR Latino – CMHDD 4K HDR mega 1 link, 10 Cloverfield Lane (2016) REMUX 4K HDR Latino – CMHDD 4K HDR pelicula completa, descargar 10 Cloverfield Lane (2016) REMUX 4K HDR Latino – CMHDD 4K HDR gratis en mega.

10 Cloverfield Lane (2016) REMUX 4K HDR Latino – CMHDD pelicula full hd, 10 Cloverfield Lane (2016) REMUX 4K HDR Latino – CMHDD mega latino, 10 Cloverfield Lane (2016) REMUX 4K HDR Latino – CMHDD 4k latino, 10 Cloverfield Lane (2016) REMUX 4K HDR Latino – CMHDD pelicula completa, 10 Cloverfield Lane (2016) REMUX 4K HDR Latino – CMHDD descargar gratis, descargar 10 Cloverfield Lane (2016) REMUX 4K HDR Latino – CMHDD pelicula latino, 10 Cloverfield Lane (2016) REMUX 4K HDR Latino – CMHDD 1 link mega, 10 Cloverfield Lane (2016) REMUX 4K HDR Latino – CMHDD 1 link google drive, 10 Cloverfield Lane (2016) REMUX 4K HDR Latino – CMHDD hd 1080p latino.
Comentarios 0