×

¿Problemas para descargar con Mozilla, EDGE? Deshabilita la opción "Abrir vinculos en una pestaña nueva" tal como lo muestra ésta imagen.

10.000 a.C. (2008) REMUX 1080p Latino

263 vistas

Información de 10.000 a.C. (2008) REMUX 1080p Latino

Datos de la película

  • Calidad: Full 1080p
  • Audio: Se especifica abajo de la Sinopsis
  • Subtitulos: Español Latino PGS - Ingles PGS
  • Resolución: 1920x1080p
  • Formato: MKV
  • Codec: H.264
  • Encoder: CinefiloCool
  • Mediainfo: Clic para Mostrar Datos Ver
  • 10.000 a.C. (2008) REMUX 1080p Latino-CMHDD.mkv
    Format                      : Matroska
    Format version              : Version 4
    File size                   : 15.3 GiB
    Duration                    : 1 h 48 min
    Overall bit rate mode       : Variable
    Overall bit rate            : 20.1 Mb/s
    Movie name                  : 10,000 B.C. (2008) CinemaniaHDD.Net
    Encoded date                : UTC 2021-04-06 07:43:05
    Writing application         : mkvmerge v51.0.0 ('I Wish') 64-bit
    Writing library             : libebml v1.4.0 + libmatroska v1.6.2
    Attachments                 : CINEMANIAHD.png

    Video
    ID                          : 1
    Format                      : VC-1
    Format profile              : Advanced@L3
    Codec ID                    : V_MS/VFW/FOURCC / WVC1
    Codec ID/Hint               : Microsoft
    Duration                    : 1 h 48 min
    Bit rate                    : 16.4 Mb/s
    Width                       : 1 920 pixels
    Height                      : 1 080 pixels
    Display aspect ratio        : 16:9
    Frame rate mode             : Constant
    Frame rate                  : 23.976 (24000/1001) FPS
    Color space                 : YUV
    Chroma subsampling          : 4:2:0
    Bit depth                   : 8 bits
    Scan type                   : Progressive
    Compression mode            : Lossy
    Bits/(Pixel*Frame)          : 0.330
    Stream size                 : 12.5 GiB (82%)
    Title                       : REMUX HD1080p [CinemaniaHDD]
    Default                     : Yes
    Forced                      : Yes

    Audio #1
    ID                          : 2
    Format                      : E-AC-3
    Format/Info                 : Enhanced AC-3
    Commercial name             : Dolby Digital Plus
    Codec ID                    : A_EAC3
    Duration                    : 1 h 48 min
    Bit rate mode               : Constant
    Bit rate                    : 640 kb/s
    Channel(s)                  : 6 channels
    Channel layout              : L R C LFE Ls Rs
    Sampling rate               : 48.0 kHz
    Frame rate                  : 31.250 FPS (1536 SPF)
    Compression mode            : Lossy
    Delay relative to video     : 1 s 997 ms
    Stream size                 : 498 MiB (3%)
    Title                       : Español Latino EAC3 [CinemaniaHDD]
    Language                    : Spanish
    Service kind                : Complete Main
    Default                     : Yes
    Forced                      : Yes

    Audio #2
    ID                          : 3
    Format                      : MLP FBA
    Format/Info                 : Meridian Lossless Packing FBA
    Commercial name             : Dolby TrueHD
    Codec ID                    : A_TRUEHD
    Duration                    : 1 h 48 min
    Bit rate mode               : Variable
    Bit rate                    : 1 666 kb/s
    Maximum bit rate            : 2 871 kb/s
    Channel(s)                  : 6 channels
    Channel layout              : L R C LFE Ls Rs
    Sampling rate               : 48.0 kHz
    Frame rate                  : 1 200.000 FPS (40 SPF)
    Compression mode            : Lossless
    Stream size                 : 1.27 GiB (8%)
    Title                       : Ingles THD [CinemaniaHDD]
    Language                    : English
    Default                     : No
    Forced                      : No

    Audio #3
    ID                          : 4
    Format                      : AC-3
    Format/Info                 : Audio Coding 3
    Commercial name             : Dolby Digital
    Codec ID                    : A_AC3
    Duration                    : 1 h 48 min
    Bit rate mode               : Constant
    Bit rate                    : 640 kb/s
    Channel(s)                  : 6 channels
    Channel layout              : L R C LFE Ls Rs
    Sampling rate               : 48.0 kHz
    Frame rate                  : 31.250 FPS (1536 SPF)
    Compression mode            : Lossy
    Stream size                 : 499 MiB (3%)
    Title                       : Español Latino AC3 [CinemaniaHDD]
    Language                    : Spanish
    Service kind                : Complete Main
    Default                     : No
    Forced                      : No

    Audio #4
    ID                          : 5
    Format                      : AC-3
    Format/Info                 : Audio Coding 3
    Commercial name             : Dolby Digital
    Codec ID                    : A_AC3
    Duration                    : 1 h 48 min
    Bit rate mode               : Constant
    Bit rate                    : 640 kb/s
    Channel(s)                  : 6 channels
    Channel layout              : L R C LFE Ls Rs
    Sampling rate               : 48.0 kHz
    Frame rate                  : 31.250 FPS (1536 SPF)
    Compression mode            : Lossy
    Stream size                 : 499 MiB (3%)
    Title                       : Ingles AC3 [CinemaniaHDD]
    Language                    : English
    Service kind                : Complete Main
    Default                     : No
    Forced                      : No

    Text #1
    ID                          : 6
    Format                      : PGS
    Muxing mode                 : zlib
    Codec ID                    : S_HDMV/PGS
    Codec ID/Info               : Picture based subtitle format used on BDs/HD-DVDs
    Duration                    : 1 h 47 min
    Bit rate                    : 13.7 kb/s
    Count of elements           : 1258
    Stream size                 : 10.5 MiB (0%)
    Title                       : Español-PGS [CinemaniaHDD]
    Language                    : Spanish
    Default                     : No
    Forced                      : No

    Text #2
    ID                          : 7
    Format                      : PGS
    Muxing mode                 : zlib
    Codec ID                    : S_HDMV/PGS
    Codec ID/Info               : Picture based subtitle format used on BDs/HD-DVDs
    Duration                    : 1 h 48 min
    Bit rate                    : 15.3 kb/s
    Count of elements           : 1492
    Stream size                 : 11.9 MiB (0%)
    Title                       : Ingles-PGS [CinemaniaHDD]
    Language                    : English
    Default                     : No
    Forced                      : No

    Text #3
    ID                          : 8
    Format                      : UTF-8
    Codec ID                    : S_TEXT/UTF8
    Codec ID/Info               : UTF-8 Plain Text
    Duration                    : 1 h 40 min
    Bit rate                    : 1 b/s
    Count of elements           : 67
    Stream size                 : 1.47 KiB (0%)
    Title                       : Forzados-SRT [CinemaniaHDD]
    Language                    : Spanish
    Default                     : Yes
    Forced                      : Yes

    Text #4
    ID                          : 9
    Format                      : UTF-8
    Codec ID                    : S_TEXT/UTF8
    Codec ID/Info               : UTF-8 Plain Text
    Duration                    : 1 h 47 min
    Bit rate                    : 25 b/s
    Count of elements           : 628
    Stream size                 : 20.3 KiB (0%)
    Title                       : Español-SRT [CinemaniaHDD]
    Language                    : Spanish
    Default                     : No
    Forced                      : No

    Menu
    00:00:00.000                : en:Old Mother's Prophecy
    00:05:35.669                : en:Only Way to be Together
    00:09:46.169                : en:Mammoth Hunt
    00:13:39.861                : en:Besting the Big Bull
    00:17:27.255                : en:D'Leh's Confession
    00:20:22.680                : en:Four-legged Demons
    00:24:48.278                : en:Four Searchers
    00:27:51.670                : en:I Like Your Spirit
    00:30:28.827                : en:Jungle Rescue
    00:34:41.663                : en:Terror Birds
    00:39:04.467                : en:Toothsome Trap
    00:44:46.142                : en:Confrontations
    00:47:53.496                : en:The One has Come
    00:52:24.099                : en:Warriors Unite
    00:56:56.705                : en:Eye of the Snake
    01:01:34.190                : en:Mountain of the Gods
    01:06:30.737                : en:Mark of the Hunter
    01:10:58.045                : en:Be as Your Father
    01:13:46.505                : en:Marked Woman
    01:17:18.551                : en:Together as One
    01:19:43.529                : en:Attack and Revolt
    01:24:17.177                : en:Almighty Dethroned
    01:29:54.264                : en:You Came for Me
    01:32:52.066                : en:Old Mother's Gift
    01:35:40.985                : en:Fulfilled
    01:37:52.033                : en:End Credits

  • Peso: 15.3 GiB

Sinopsis

Descargar 10.000 a.C. (2008) REMUX 1080p Latino. Era la época en la que el hombre y la bestia eran salvajes y el gran mamut recorría la Tierra. Una época en la que nacieron las ideas y las creencias que forjaron a la humanidad para siempre. «10.000» narra la historia de un joven cazador (Steven Strait) en su misión de guiar a un ejército a través de un vasto desierto, luchando contra tigres dientes de sable y depredadores prehistóricos, mientras descubre una civilización perdida e intenta rescatar a la mujer que ama.

Audio Español Latino EAC3 + AC3 5.1 – Ingles TrueHD + AC3 5.1

Ficha técnica

Video trailer de la película

Enlaces de descarga

Rip de Bluray

Descargar 10.000 a.C. (2008) REMUX 1080p Latino




Aportes de DPeliculasHDmega la pass es:dpeliculashdmega.org Aportes de CinemaniaHD la pass es:cinemaniahdd.com
Guardado en : Acción , Aventura , Drama , Fantasía , Remux

Películas relacionadas

  • Togo (2022) NF WEB-DL 1080p Latino

    Togo (2022) NF WEB-DL 1080p Latino

    2022
    Togo (2022) NF WEB-DL 1080p Latino

    1h 35m 2022

    Descargar Togo (2022) NF WEB-DL 1080p Latino. Los narcos de poca monta están copando las calles de Montevideo...

    Director: Adrián Caetano

    Género: Crimen

    Actores: Tito Prieto

  • El Ultimo Juego (2021) WEB-DL 1080p Latino

    El Ultimo Juego (2021) WEB-DL 1080p Latino

    2021
    El Ultimo Juego (2021) WEB-DL 1080p Latino

    1h 21m 2021

    Descargar El Ultimo Juego (2021) WEB-DL 1080p Latino. 6 extraños se despiertan dentro de una habitación...

    Director: John David Moffat IV

    Género: Drama

    Actores: Yasmin Irvine

  • DC Liga De Supermascotas (2022) HD 1080p Latino

    DC Liga De Supermascotas (2022) HD 1080p Latino

    2022
    DC Liga De Supermascotas (2022) HD 1080p Latino

    1h 45m 2022

    Descargar DC Liga De Supermascotas (2022) HD 1080p Latino. Krypto el Superperro y Superman son amigos...

    Director: Sam Levine

    Género: Acción

    Actores: Yvette Nicole Brown

descargar 10.000 a.C. (2008) REMUX 1080p Latino Full 1080p 1080p gratis, 10.000 a.C. (2008) REMUX 1080p Latino Full 1080p mega 1 link, 10.000 a.C. (2008) REMUX 1080p Latino Full 1080p pelicula completa, descargar 10.000 a.C. (2008) REMUX 1080p Latino Full 1080p gratis en mega.

10.000 a.C. (2008) REMUX 1080p Latino pelicula full hd, 10.000 a.C. (2008) REMUX 1080p Latino mega latino, 10.000 a.C. (2008) REMUX 1080p Latino 4k latino, 10.000 a.C. (2008) REMUX 1080p Latino pelicula completa, 10.000 a.C. (2008) REMUX 1080p Latino descargar gratis, descargar 10.000 a.C. (2008) REMUX 1080p Latino pelicula latino, 10.000 a.C. (2008) REMUX 1080p Latino 1 link mega, 10.000 a.C. (2008) REMUX 1080p Latino 1 link google drive, 10.000 a.C. (2008) REMUX 1080p Latino hd 1080p latino.
Comentarios 0