10.000 a.C. (2008) Full HD 1080p Latino

3.447 vistas
1 estrella2 estrellas3 estrellas4 estrellas5 estrellas (1 votos, promedio: 5,00 de 5)
Cargando...

Información de 10.000 a.C. (2008) Full HD 1080p Latino

Datos de la película

  • Calidad: Full 1080p
  • Audio: Se especifica abajo de la Sinopsis
  • Subtitulos: Español Latino PGS - Ingles PGS
  • Resolución: 1920X1080p
  • Formato: MKV
  • Codec: H.264
  • Encoder: CinefiloCool
  • Mediainfo: Clic para Mostrar Datos Ver
  • 10.000 a.C. (2008) Full HD 1080p Latino-CMHDD.mkv
    Format                      : Matroska
    Format version              : Version 4
    File size                   : 7.56 GiB
    Duration                    : 1 h 48 min
    Overall bit rate            : 9 936 kb/s
    Movie name                  : 10,000 B.C. (2008) CinemaniaHDD.Net
    Encoded date                : UTC 2021-04-13 07:14:55
    Writing application         : mkvmerge v51.0.0 ('I Wish') 64-bit
    Writing library             : libebml v1.4.0 + libmatroska v1.6.2
    Attachments                 : CINEMANIAHD.png

    Video
    ID                          : 1
    Format                      : AVC
    Format/Info                 : Advanced Video Codec
    Format profile              : High@L4.1
    Format settings             : CABAC / 4 Ref Frames
    Format settings, CABAC      : Yes
    Format settings, Reference  : 4 frames
    Codec ID                    : V_MPEG4/ISO/AVC
    Duration                    : 1 h 48 min
    Bit rate                    : 8 001 kb/s
    Width                       : 1 920 pixels
    Height                      : 1 080 pixels
    Display aspect ratio        : 16:9
    Frame rate mode             : Constant
    Frame rate                  : 23.976 (24000/1001) FPS
    Color space                 : YUV
    Chroma subsampling          : 4:2:0
    Bit depth                   : 8 bits
    Scan type                   : Progressive
    Bits/(Pixel*Frame)          : 0.161
    Stream size                 : 6.09 GiB (81%)
    Title                       : Full HD1080p [CinemaniaHDD]
    Writing library             : x264 core 157 r2935 545de2f
    Encoding settings           : cabac=1 / ref=4 / deblock=1:0:0 / analyse=0x3:0x133 / me=tesa / subme=11 / psy=1 / psy_rd=1.00:0.00 / mixed_ref=1 / me_range=24 / chroma_me=1 / trellis=2 / 8x8dct=1 / cqm=0 / deadzone=21,11 / fast_pskip=0 / chroma_qp_offset=-2 / threads=24 / lookahead_threads=6 / sliced_threads=0 / nr=0 / decimate=1 / interlaced=0 / bluray_compat=0 / constrained_intra=0 / bframes=16 / b_pyramid=2 / b_adapt=2 / b_bias=0 / direct=3 / weightb=1 / open_gop=0 / weightp=2 / keyint=240 / keyint_min=24 / scenecut=40 / intra_refresh=0 / rc_lookahead=60 / rc=crf / mbtree=1 / crf=18.0 / qcomp=0.60 / qpmin=0 / qpmax=69 / qpstep=4 / vbv_maxrate=62500 / vbv_bufsize=78125 / crf_max=0.0 / nal_hrd=none / filler=0 / ip_ratio=1.40 / aq=1:1.00
    Default                     : Yes
    Forced                      : Yes
    Color range                 : Limited
    Color primaries             : BT.709
    Transfer characteristics    : BT.709
    Matrix coefficients         : BT.709

    Audio #1
    ID                          : 2
    Format                      : E-AC-3
    Format/Info                 : Enhanced AC-3
    Commercial name             : Dolby Digital Plus
    Codec ID                    : A_EAC3
    Duration                    : 1 h 48 min
    Bit rate mode               : Constant
    Bit rate                    : 640 kb/s
    Channel(s)                  : 6 channels
    Channel layout              : L R C LFE Ls Rs
    Sampling rate               : 48.0 kHz
    Frame rate                  : 31.250 FPS (1536 SPF)
    Compression mode            : Lossy
    Delay relative to video     : 1 s 997 ms
    Stream size                 : 498 MiB (6%)
    Title                       : Español Latino EAC3 [CinemaniaHDD]
    Language                    : Spanish
    Service kind                : Complete Main
    Default                     : Yes
    Forced                      : Yes

    Audio #2
    ID                          : 3
    Format                      : AC-3
    Format/Info                 : Audio Coding 3
    Commercial name             : Dolby Digital
    Codec ID                    : A_AC3
    Duration                    : 1 h 48 min
    Bit rate mode               : Constant
    Bit rate                    : 640 kb/s
    Channel(s)                  : 6 channels
    Channel layout              : L R C LFE Ls Rs
    Sampling rate               : 48.0 kHz
    Frame rate                  : 31.250 FPS (1536 SPF)
    Compression mode            : Lossy
    Stream size                 : 499 MiB (6%)
    Title                       : Español Latino AC3 [CinemaniaHDD]
    Language                    : Spanish
    Service kind                : Complete Main
    Default                     : No
    Forced                      : No

    Audio #3
    ID                          : 4
    Format                      : AC-3
    Format/Info                 : Audio Coding 3
    Commercial name             : Dolby Digital
    Codec ID                    : A_AC3
    Duration                    : 1 h 48 min
    Bit rate mode               : Constant
    Bit rate                    : 640 kb/s
    Channel(s)                  : 6 channels
    Channel layout              : L R C LFE Ls Rs
    Sampling rate               : 48.0 kHz
    Frame rate                  : 31.250 FPS (1536 SPF)
    Compression mode            : Lossy
    Stream size                 : 499 MiB (6%)
    Title                       : Ingles AC3 [CinemaniaHDD]
    Language                    : English
    Service kind                : Complete Main
    Default                     : No
    Forced                      : No

    Text #1
    ID                          : 5
    Format                      : PGS
    Muxing mode                 : zlib
    Codec ID                    : S_HDMV/PGS
    Codec ID/Info               : Picture based subtitle format used on BDs/HD-DVDs
    Duration                    : 1 h 47 min
    Bit rate                    : 13.7 kb/s
    Count of elements           : 1258
    Stream size                 : 10.5 MiB (0%)
    Title                       : Español-PGS [CinemaniaHDD]
    Language                    : Spanish
    Default                     : No
    Forced                      : No

    Text #2
    ID                          : 6
    Format                      : PGS
    Muxing mode                 : zlib
    Codec ID                    : S_HDMV/PGS
    Codec ID/Info               : Picture based subtitle format used on BDs/HD-DVDs
    Duration                    : 1 h 48 min
    Bit rate                    : 15.3 kb/s
    Count of elements           : 1492
    Stream size                 : 11.9 MiB (0%)
    Title                       : Ingles-PGS [CinemaniaHDD]
    Language                    : English
    Default                     : No
    Forced                      : No

    Text #3
    ID                          : 7
    Format                      : UTF-8
    Codec ID                    : S_TEXT/UTF8
    Codec ID/Info               : UTF-8 Plain Text
    Duration                    : 1 h 40 min
    Bit rate                    : 1 b/s
    Count of elements           : 67
    Stream size                 : 1.47 KiB (0%)
    Title                       : Forzados-SRT [CinemaniaHDD]
    Language                    : Spanish
    Default                     : Yes
    Forced                      : Yes

    Text #4
    ID                          : 8
    Format                      : UTF-8
    Codec ID                    : S_TEXT/UTF8
    Codec ID/Info               : UTF-8 Plain Text
    Duration                    : 1 h 47 min
    Bit rate                    : 25 b/s
    Count of elements           : 628
    Stream size                 : 20.3 KiB (0%)
    Title                       : Español-SRT [CinemaniaHDD]
    Language                    : Spanish
    Default                     : No
    Forced                      : No

    Menu
    00:00:00.000                : en:Old Mother's Prophecy
    00:05:35.669                : en:Only Way to be Together
    00:09:46.169                : en:Mammoth Hunt
    00:13:39.861                : en:Besting the Big Bull
    00:17:27.255                : en:D'Leh's Confession
    00:20:22.680                : en:Four-legged Demons
    00:24:48.278                : en:Four Searchers
    00:27:51.670                : en:I Like Your Spirit
    00:30:28.827                : en:Jungle Rescue
    00:34:41.663                : en:Terror Birds
    00:39:04.467                : en:Toothsome Trap
    00:44:46.142                : en:Confrontations
    00:47:53.496                : en:The One has Come
    00:52:24.099                : en:Warriors Unite
    00:56:56.705                : en:Eye of the Snake
    01:01:34.190                : en:Mountain of the Gods
    01:06:30.737                : en:Mark of the Hunter
    01:10:58.045                : en:Be as Your Father
    01:13:46.505                : en:Marked Woman
    01:17:18.551                : en:Together as One
    01:19:43.529                : en:Attack and Revolt
    01:24:17.177                : en:Almighty Dethroned
    01:29:54.264                : en:You Came for Me
    01:32:52.066                : en:Old Mother's Gift
    01:35:40.985                : en:Fulfilled
    01:37:52.033                : en:End Credits

  • Peso: 7.56 GiB

Sinopsis

Descargar 10.000 a.C. (2008) Full HD 1080p Latino. Era la época en la que el hombre y la bestia eran salvajes y el gran mamut recorría la Tierra. Una época en la que nacieron las ideas y las creencias que forjaron a la humanidad para siempre. «10.000» narra la historia de un joven cazador (Steven Strait) en su misión de guiar a un ejército a través de un vasto desierto, luchando contra tigres dientes de sable y depredadores prehistóricos, mientras descubre una civilización perdida e intenta rescatar a la mujer que ama.

Audio Español Latino EAC3 + AC3 5.1 – Ingles AC3 5.1 Bluray
RESUBIDO NUEVO RIP VERSION PLACEBO!!!

Ficha técnica

Video trailer de la película

Enlaces de descarga

Rip de Bluray

Descargar 10.000 a.C. (2008) Full HD 1080p Latino




Aportes de DPeliculasHDmega la pass es:dpeliculashdmega.org Aportes de CinemaniaHD la pass es:cinemaniahdd.com

Películas relacionadas

10.000 a.C. (2008) Full HD 1080p Latino pelicula full hd, 10.000 a.C. (2008) Full HD 1080p Latino mega latino, 10.000 a.C. (2008) Full HD 1080p Latino 4k latino, 10.000 a.C. (2008) Full HD 1080p Latino pelicula completa, 10.000 a.C. (2008) Full HD 1080p Latino descargar gratis, descargar 10.000 a.C. (2008) Full HD 1080p Latino pelicula latino, 10.000 a.C. (2008) Full HD 1080p Latino 1 link mega, 10.000 a.C. (2008) Full HD 1080p Latino 1 link google drive, 10.000 a.C. (2008) Full HD 1080p Latino hd 1080p latino.
Comentarios 0