×

¿Problemas para descargar con Mozilla, EDGE? Deshabilita la opción "Abrir vinculos en una pestaña nueva" tal como lo muestra ésta imagen.

Harry Potter y la piedra filosofal (2001) [Edicion Extendida] REMUX 1080p Latino

998 vistas

Información de Harry Potter y la piedra filosofal (2001) [Edicion Extendida] REMUX 1080p Latino

Datos de la película

  • Calidad: Full 1080p
  • Audio: Español Latino AC3 5.1 BLURAY - Ingles DTS 5.1 BLURAY
  • Subtitulos: Español Latino SRT- FORZADOS SRT
  • Resolución: 1920x1080p
  • Formato: MKV
  • Codec: H.264
  • Encoder: Dracarys
  • Mediainfo: Clic para Mostrar Datos Ver
  • Format                      : Matroska
    Format version              : Version 4
    File size                   : 24.3 GiB
    Duration                    : 2 h 38 min
    Overall bit rate mode       : Variable
    Overall bit rate            : 21.9 Mb/s
    Movie name                  : CinemaniaHDD.net
    Encoded date                : UTC 2020-04-27 00:11:10
    Writing application         : mkvmerge v38.0.0 ('The Silent Type') 64-bit
    Writing library             : libebml v1.3.9 + libmatroska v1.5.2

    Video
    ID                          : 1
    Format                      : VC-1
    Format profile              : Advanced@L3
    Codec ID                    : V_MS/VFW/FOURCC / WVC1
    Codec ID/Hint               : Microsoft
    Duration                    : 2 h 38 min
    Bit rate                    : 18.9 Mb/s
    Width                       : 1 920 pixels
    Height                      : 1 080 pixels
    Display aspect ratio        : 16:9
    Frame rate mode             : Constant
    Frame rate                  : 23.976 (24000/1001) FPS
    Color space                 : YUV
    Chroma subsampling          : 4:2:0
    Bit depth                   : 8 bits
    Scan type                   : Progressive
    Compression mode            : Lossy
    Bits/(Pixel*Frame)          : 0.380
    Stream size                 : 21.0 GiB (86%)
    Language                    : English
    Default                     : Yes
    Forced                      : No

    Audio #1
    ID                          : 2
    Format                      : AC-3
    Format/Info                 : Audio Coding 3
    Commercial name             : Dolby Digital
    Codec ID                    : A_AC3
    Duration                    : 2 h 38 min
    Bit rate mode               : Constant
    Bit rate                    : 640 kb/s
    Channel(s)                  : 6 channels
    Channel layout              : L R C LFE Ls Rs
    Sampling rate               : 48.0 kHz
    Frame rate                  : 31.250 FPS (1536 SPF)
    Bit depth                   : 16 bits
    Compression mode            : Lossy
    Stream size                 : 727 MiB (3%)
    Language                    : Spanish
    Service kind                : Complete Main
    Default                     : Yes
    Forced                      : No

    Audio #2
    ID                          : 3
    Format                      : DTS XLL
    Format/Info                 : Digital Theater Systems
    Commercial name             : DTS-HD Master Audio
    Codec ID                    : A_DTS
    Duration                    : 2 h 38 min
    Bit rate mode               : Variable
    Bit rate                    : 2 296 kb/s
    Channel(s)                  : 6 channels
    Channel layout              : C L R Ls Rs LFE
    Sampling rate               : 48.0 kHz
    Frame rate                  : 93.750 FPS (512 SPF)
    Bit depth                   : 16 bits
    Compression mode            : Lossless
    Stream size                 : 2.55 GiB (11%)
    Language                    : English
    Default                     : No
    Forced                      : No

    Text #1
    ID                          : 4
    Format                      : UTF-8
    Codec ID                    : S_TEXT/UTF8
    Codec ID/Info               : UTF-8 Plain Text
    Duration                    : 2 h 28 min
    Bit rate                    : 48 b/s
    Count of elements           : 1670
    Stream size                 : 53.2 KiB (0%)
    Title                       : SRT-Completos
    Language                    : Spanish
    Default                     : No
    Forced                      : No

    Text #2
    ID                          : 5
    Format                      : PGS
    Muxing mode                 : zlib
    Codec ID                    : S_HDMV/PGS
    Codec ID/Info               : Picture based subtitle format used on BDs/HD-DVDs
    Duration                    : 2 h 37 min
    Bit rate                    : 23.9 kb/s
    Count of elements           : 2906
    Stream size                 : 26.9 MiB (0%)
    Title                       : PGS-Completos
    Language                    : Spanish
    Default                     : No
    Forced                      : No

    Menu
    00:00:00.000                : en:Doorstep Delivery
    00:04:05.412                : en:Vanishing Glass
    00:08:11.449                : en:Letters From No One
    00:13:41.821                : en:Keeper of the Keys
    00:19:49.188                : en:Diagon Alley
    00:23:42.296                : en:Gringotts
    00:26:40.307                : en:Ollivanders
    00:30:48.138                : en:The Boy Who Lived
    00:33:03.857                : en:Platform 9 3/4
    00:36:04.204                : en:Ron and Hermione
    00:39:48.261                : en:Welcome to Hogwarts
    00:43:28.105                : en:Sorting Hat
    00:48:12.097                : en:Nick and Other Residents
    00:52:27.686                : en:Potions and Parcels
    00:58:29.381                : en:New Seeker
    01:04:20.607                : en:Three-Headed Sentinel
    01:07:08.942                : en:Facts and Feathers
    01:11:13.186                : en:Mountain Troll
    01:17:30.604                : en:Quidditch
    01:23:59.242                : en:Interference Overcome
    01:27:35.917                : en:Christmas Gift
    01:32:13.820                : en:Cloaked in Darkness
    01:35:25.011                : en:Mirror of Erised
    01:41:18.155                : en:Norbert
    01:49:04.079                : en:Forbidden Forest
    01:55:34.177                : en:Up to Something
    01:59:50.725                : en:Through the Trapdoor
    02:04:38.888                : en:Wizards' Chess
    02:10:13.973                : en:Sacrifice Play
    02:13:25.289                : en:Man with Two Faces
    02:17:24.528                : en:Magic Touch
    02:20:47.981                : en:Mark of Love
    02:23:58.755                : en:House Cup Winner
    02:28:13.843                : en:Not Really Going Home
    02:30:41.699                : en:Credits

  • Peso: 24.3 GiB

Sinopsis

Harry Potter es un huérfano que vive con sus desagradables tíos, los Dursley, y su repelente primo Dudley. Se acerca su undécimo cumpleaños y tiene pocas esperanzas de recibir algún regalo, ya que nunca nadie se acuerda de él. Sin embargo, pocos días antes de su cumpleaños, una serie de misteriosas cartas dirigidas a él y escritas con una estridente tinta verde rompen la monotonía de su vida: Harry es un mago y sus padres también lo eran.

Ficha técnica

Video trailer de la película

Enlaces de descarga

Rip de Bluray

Descargar Harry Potter y la piedra filosofal (2001) [Edicion Extendida] REMUX 1080p Latino




Aportes de DPeliculasHDmega la pass es:dpeliculashdmega.org Aportes de CinemaniaHD la pass es:cinemaniahdd.com
Guardado en : Aventura , Familia , Fantasía , Remux

Películas relacionadas

descargar Harry Potter y la piedra filosofal (2001) [Edicion Extendida] REMUX 1080p Latino Full 1080p 1080p gratis, Harry Potter y la piedra filosofal (2001) [Edicion Extendida] REMUX 1080p Latino Full 1080p mega 1 link, Harry Potter y la piedra filosofal (2001) [Edicion Extendida] REMUX 1080p Latino Full 1080p pelicula completa, descargar Harry Potter y la piedra filosofal (2001) [Edicion Extendida] REMUX 1080p Latino Full 1080p gratis en mega.

Harry Potter y la piedra filosofal (2001) [Edicion Extendida] REMUX 1080p Latino pelicula full hd, Harry Potter y la piedra filosofal (2001) [Edicion Extendida] REMUX 1080p Latino mega latino, Harry Potter y la piedra filosofal (2001) [Edicion Extendida] REMUX 1080p Latino 4k latino, Harry Potter y la piedra filosofal (2001) [Edicion Extendida] REMUX 1080p Latino pelicula completa, Harry Potter y la piedra filosofal (2001) [Edicion Extendida] REMUX 1080p Latino descargar gratis, descargar Harry Potter y la piedra filosofal (2001) [Edicion Extendida] REMUX 1080p Latino pelicula latino, Harry Potter y la piedra filosofal (2001) [Edicion Extendida] REMUX 1080p Latino 1 link mega, Harry Potter y la piedra filosofal (2001) [Edicion Extendida] REMUX 1080p Latino 1 link google drive, Harry Potter y la piedra filosofal (2001) [Edicion Extendida] REMUX 1080p Latino hd 1080p latino.
Comentarios 0