X-Men Days of Future Past (2014) Full 1080p Latino

1.173 vistas
1 estrella2 estrellas3 estrellas4 estrellas5 estrellas (1 votos, promedio: 1,00 de 5)
Cargando…

Información de X-Men Days of Future Past (2014) Full 1080p Latino

Datos de la película

  • Calidad: Full 1080p
  • Audio: Español Latino AC3 5.1 BLURAY - Ingles DTS 5.1 BLURAY
  • Subtitulos: Español Latino PGS - Ingles PGS
  • Resolución: 1920x1080p
  • Formato: MKV
  • Codec: H.264
  • Encoder: Dracarys
  • Mediainfo: Clic para Mostrar Datos Ver
  • Format                                   : Matroska
    Format version                           : Version 4 / Version 2
    File size                                : 5.91 GiB
    Duration                                 : 2 h 11 min
    Overall bit rate                         : 6 427 kb/s
    Movie name                               : CinemaniaHDD.com
    Encoded date                             : UTC 2018-03-21 00:29:08 / UTC 2018-03-18T03:23:22Z
    Writing application                      : mkvmerge v15.0.0 ('Duel with the Devil') 64-bit
    Writing library                          : libebml v1.3.5 + libmatroska v1.4.5 / Lavf57.7.2

    Video
    ID                                       : 1
    Format                                   : AVC
    Format/Info                              : Advanced Video Codec
    Format profile                           : High@L4.1
    Format settings                          : CABAC / 4 Ref Frames
    Format settings, CABAC                   : Yes
    Format settings, RefFrames               : 4 frames
    Codec ID                                 : V_MPEG4/ISO/AVC
    Duration                                 : 2 h 11 min
    Bit rate                                 : 4 343 kb/s
    Width                                    : 1 920 pixels
    Height                                   : 1 080 pixels
    Display aspect ratio                     : 16:9
    Frame rate mode                          : Constant
    Frame rate                               : 23.976 (24000/1001) FPS
    Color space                              : YUV
    Chroma subsampling                       : 4:2:0
    Bit depth                                : 8 bits
    Scan type                                : Progressive
    Bits/(Pixel*Frame)                       : 0.087
    Stream size                              : 3.99 GiB (68%)
    Title                                    : X-Men Days of Future Past (2014) Full 1080p Latino
    Writing library                          : x264 core 148 r2708 86b7198
    Encoding settings                        : cabac=1 / ref=4 / deblock=1:0:0 / analyse=0x3:0x133 / me=esa / subme=9 / psy=1 / psy_rd=1.00:0.00 / mixed_ref=1 / me_range=16 / chroma_me=1 / trellis=2 / 8x8dct=1 / cqm=0 / deadzone=21,11 / fast_pskip=1 / chroma_qp_offset=-2 / threads=34 / lookahead_threads=2 / sliced_threads=0 / nr=0 / decimate=1 / interlaced=0 / bluray_compat=0 / constrained_intra=0 / bframes=3 / b_pyramid=2 / b_adapt=2 / b_bias=0 / direct=3 / weightb=1 / open_gop=0 / weightp=2 / keyint=240 / keyint_min=24 / scenecut=40 / intra_refresh=0 / rc_lookahead=60 / rc=crf / mbtree=1 / crf=21.0 / qcomp=0.60 / qpmin=0 / qpmax=69 / qpstep=4 / vbv_maxrate=62500 / vbv_bufsize=78125 / crf_max=0.0 / nal_hrd=none / filler=0 / ip_ratio=1.40 / aq=1:1.00
    Language                                 : English
    Default                                  : Yes
    Forced                                   : No
    Color range                              : Limited
    Color primaries                          : BT.709
    Transfer characteristics                 : BT.709
    Matrix coefficients                      : BT.709
    Statistics Tags Issue                    : mkvmerge v15.0.0 ('Duel with the Devil') 64-bit 2018-03-21 00:29:08 / mkvmerge v15.0.0 ('Duel with the Devil') 64-bit 2018-03-21 00:29:08 / UTC 2018-03-18T03:23:22Z
    FromStats_BitRate                        : 4449792
    FromStats_Duration                       : 02:11:35.304000000
    FromStats_FrameCount                     : 189298
    FromStats_StreamSize                     : 4391558436

    Audio #1
    ID                                       : 2
    Format                                   : AC-3
    Format/Info                              : Audio Coding 3
    Format settings, Endianness              : Big
    Codec ID                                 : A_AC3
    Duration                                 : 2 h 11 min
    Bit rate mode                            : Constant
    Bit rate                                 : 448 kb/s
    Channel(s)                               : 6 channels
    Channel positions                        : Front: L C R, Side: L R, LFE
    Sampling rate                            : 48.0 kHz
    Frame rate                               : 31.250 FPS (1536 SPF)
    Bit depth                                : 16 bits
    Compression mode                         : Lossy
    Stream size                              : 422 MiB (7%)
    Language                                 : Spanish
    Service kind                             : Complete Main
    Default                                  : Yes
    Forced                                   : No
    Statistics Tags Issue                    : mkvmerge v15.0.0 ('Duel with the Devil') 64-bit 2018-03-21 00:29:08 / mkvmerge v15.0.0 ('Duel with the Devil') 64-bit 2018-03-21 00:29:08 / UTC 2018-03-18T03:23:22Z
    FromStats_BitRate                        : 448000
    FromStats_Duration                       : 02:11:35.424000000
    FromStats_FrameCount                     : 246732
    FromStats_StreamSize                     : 442143744

    Audio #2
    ID                                       : 3
    Format                                   : DTS
    Format/Info                              : Digital Theater Systems
    Format profile                           : ES Matrix / Core
    Mode                                     : 16
    Format settings, Endianness              : Big
    Codec ID                                 : A_DTS
    Duration                                 : 2 h 11 min
    Bit rate mode                            : Constant
    Bit rate                                 : 1 509 kb/s
    Channel(s)                               : 7 channels / 6 channels
    Channel positions                        : Front: L C R, Side: L R, Back: C, LFE / Front: L C R, Side: L R, LFE
    Sampling rate                            : 48.0 kHz
    Frame rate                               : 93.750 FPS (512 SPF)
    Bit depth                                : 24 bits
    Compression mode                         : Lossy
    Stream size                              : 1.39 GiB (23%)
    Language                                 : English
    Default                                  : No
    Forced                                   : No
    Statistics Tags Issue                    : mkvmerge v15.0.0 ('Duel with the Devil') 64-bit 2018-03-21 00:29:08 / mkvmerge v15.0.0 ('Duel with the Devil') 64-bit 2018-03-21 00:29:08 / UTC 2018-03-18T03:23:22Z
    FromStats_BitRate                        : 1508999
    FromStats_Duration                       : 02:11:35.339000000
    FromStats_FrameCount                     : 740188
    FromStats_StreamSize                     : 1489258256

    Text #1
    ID                                       : 4
    Format                                   : UTF-8
    Codec ID                                 : S_TEXT/UTF8
    Codec ID/Info                            : UTF-8 Plain Text
    Title                                    : Forzados
    Language                                 : Spanish
    Default                                  : Yes
    Forced                                   : Yes
    Statistics Tags Issue                    : mkvmerge v15.0.0 ('Duel with the Devil') 64-bit 2018-03-21 00:29:08 / mkvmerge v15.0.0 ('Duel with the Devil') 64-bit 2018-03-21 00:29:08 / UTC 2018-03-18T03:23:22Z
    FromStats_BitRate                        : 1
    FromStats_Duration                       : 01:19:20.148000000
    FromStats_FrameCount                     : 30
    FromStats_StreamSize                     : 863

    Text #2
    ID                                       : 5
    Format                                   : PGS
    Muxing mode                              : zlib
    Codec ID                                 : S_HDMV/PGS
    Codec ID/Info                            : Picture based subtitle format used on BDs/HD-DVDs
    Language                                 : English
    Default                                  : No
    Forced                                   : No
    Statistics Tags Issue                    : mkvmerge v15.0.0 ('Duel with the Devil') 64-bit 2018-03-21 00:29:08 / mkvmerge v15.0.0 ('Duel with the Devil') 64-bit 2018-03-21 00:29:08 / UTC 2018-03-18T03:23:22Z
    FromStats_BitRate                        : 33201
    FromStats_Duration                       : 02:09:56.789000000
    FromStats_FrameCount                     : 3414
    FromStats_StreamSize                     : 32358620

    Text #3
    ID                                       : 6
    Format                                   : PGS
    Muxing mode                              : zlib
    Codec ID                                 : S_HDMV/PGS
    Codec ID/Info                            : Picture based subtitle format used on BDs/HD-DVDs
    Language                                 : Spanish
    Default                                  : No
    Forced                                   : No
    Statistics Tags Issue                    : mkvmerge v15.0.0 ('Duel with the Devil') 64-bit 2018-03-21 00:29:08 / mkvmerge v15.0.0 ('Duel with the Devil') 64-bit 2018-03-21 00:29:08 / UTC 2018-03-18T03:23:22Z
    FromStats_BitRate                        : 25912
    FromStats_Duration                       : 02:10:30.169000000
    FromStats_FrameCount                     : 2476
    FromStats_StreamSize                     : 25362209

    Menu
    00:00:00.000                             : :Chapter 1
    00:03:33.338                             : :Chapter 2
    00:08:00.689                             : :Chapter 3
    00:10:28.628                             : :Chapter 4
    00:13:58.046                             : :Chapter 5
    00:17:02.021                             : :Chapter 6
    00:20:16.090                             : :Chapter 7
    00:22:11.330                             : :Chapter 8
    00:26:37.888                             : :Chapter 9
    00:30:32.039                             : :Chapter 10
    00:34:29.776                             : :Chapter 11
    00:36:00.992                             : :Chapter 12
    00:38:18.087                             : :Chapter 13
    00:40:37.101                             : :Chapter 14
    00:45:53.793                             : :Chapter 15
    00:48:53.848                             : :Chapter 16
    00:51:58.157                             : :Chapter 17
    00:54:43.113                             : :Chapter 18
    00:57:51.426                             : :Chapter 19
    01:00:48.186                             : :Chapter 20
    01:03:26.594                             : :Chapter 21
    01:07:09.567                             : :Chapter 22
    01:09:43.596                             : :Chapter 23
    01:13:11.470                             : :Chapter 24
    01:15:31.861                             : :Chapter 25
    01:17:27.726                             : :Chapter 26
    01:19:30.099                             : :Chapter 27
    01:24:50.711                             : :Chapter 28
    01:26:58.255                             : :Chapter 29
    01:31:04.250                             : :Chapter 30
    01:34:03.680                             : :Chapter 31
    01:37:33.181                             : :Chapter 32
    01:41:54.817                             : :Chapter 33
    01:44:52.995                             : :Chapter 34
    01:47:19.808                             : :Chapter 35
    01:51:29.766                             : :Chapter 36
    01:56:42.746                             : :Chapter 37
    02:00:12.414                             : :Chapter 38
    02:02:34.973                             : :Chapter 39
    02:10:31.907                             : :Chapter 40

  • Peso: 5.91 GiB

Sinopsis

Ambientada en la década de los 70, los miembros de la famosa Patrulla X tendrán que evitar un futuro apocalíptico en el que los mutantes luchan por sobrevivir en campos de concentración controlados por los temibles Centinelas. Para ello, los héroes del universo Marvel deberán unificar sus fuerzas dejando a un lado la creciente enemistad de los bandos liderados por Charles Xavier y Magneto. Trask Industries, la empresa encargada de crear a estos gigantescos cazamutantes, será el origen de todos sus problemas. Tan sólo viajando en el tiempo podrán impedir la masacre que se avecina. ¿Serán capaces nuestros héroes de derrocar a la multinacional y evitar así el exterminio de su especie?

Ficha técnica

Video trailer de la película

Enlaces de descarga

Rip de Bluray

Descargar X-Men Days of Future Past (2014) Full 1080p Latino




Aportes de DPeliculasHDmega la pass es:dpeliculashdmega.org Aportes de CinemaniaHD la pass es:cinemaniahdd.com

Películas relacionadas

  • La casa con un reloj en sus paredes (2018) 1080p Latino

    2018
    La casa con un reloj en sus paredes (2018) 1080p Latino

    5.0 1h 45m 2018

    Descargar La casa con un reloj en sus paredes (2018) 1080p Latino, Mega, Google Drive, Torrent. La historia...

    Director: Eli Roth

    Género: Familia

    Actores: Vanessa Anne Williams

  • Godzilla (2014) 1080p Latino

    2014
    Godzilla (2014) 1080p Latino

    0.0 2h 3m 2014

    Descargar Godzilla (2014) 1080p Latino, Mega, Google Drive, Torrent. Gareth Edwards dirige este "reboot",...

    Director: Jessica Clothier

    Género: Acción

    Actores: Yuki Morita

  • Godzilla (2014) Full 1080p Latino

    2014
    Godzilla (2014) Full 1080p Latino

    4.2 2h 3m 2014

    Descargar Godzilla (2014) Full 1080p Latino, Mega, Google Drive, Torrent. Gareth Edwards dirige este...

    Director: Jessica Clothier

    Género: Acción

    Actores: Yuki Morita

Comentarios 5
  • ocpgaiden - 22 marzo, 2018

    perdon x-men dias del futuro pasado, gracias

  • ocpgaiden - 22 marzo, 2018

    excelente movie, gracias por x-men apocalipsis

  • Kurisuuup - 21 marzo, 2018

    ¿Subirán el Rogue Cut?

    • Dracarys - 21 marzo, 2018

      si

      • Kurisuuup - 22 marzo, 2018

        Genial. Muchas gracias por subir toda la saga, la estuve esperando mucho tiempo.